<?xml version="1.0" standalone="no"?>
<!DOCTYPE svg PUBLIC "-//W3C//DTD SVG 1.1//EN" "http://www.w3.org/Graphics/SVG/1.1/DTD/svg11.dtd" >
<svg xmlns="http://www.w3.org/2000/svg" xmlns:xlink="http://www.w3.org/1999/xlink" version="1.1">
<metadata></metadata>
<defs>
<font id="pp_editorial_newultraLtIt" horiz-adv-x="1253" >
<font-face units-per-em="2048" ascent="1638" descent="-410" />
<missing-glyph horiz-adv-x="407" />
<glyph horiz-adv-x="0" />
<glyph horiz-adv-x="682" />
<glyph unicode=" "  horiz-adv-x="407" />
<glyph unicode="&#x09;" horiz-adv-x="407" />
<glyph unicode="&#xa0;" horiz-adv-x="407" />
<glyph unicode="!" horiz-adv-x="393" d="M-47 51q0 47 36 83t81 36q33 0 53 -20.5t20 -51.5q0 -46 -34.5 -82t-79.5 -36q-32 0 -54 20t-22 51zM133 393q98 329 164.5 595t96.5 403.5t42 175.5q18 59 41 85.5t60 26.5q55 0 55 -59q0 -24 -12 -68q-11 -36 -63.5 -169t-145.5 -394.5t-197 -595.5h-41z" />
<glyph unicode="&#x22;" horiz-adv-x="632" d="M295 1139q15 72 29.5 163.5t27 155t29.5 119.5q29 102 92 102q75 0 41 -110q-17 -55 -41.5 -116t-66 -157t-68.5 -161zM586 1139q13 66 38 216t46 222q17 53 39.5 77.5t54.5 24.5q75 0 41 -110q-17 -55 -40.5 -114.5t-68 -160t-69.5 -159.5z" />
<glyph unicode="#" horiz-adv-x="1597" d="M164 465v86h338l166 573h-361v86h385l135 469h91l-136 -469h441l135 469h88l-135 -469h303v-86h-328l-166 -573h350v-86h-374l-146 -506h-88l146 506h-441l-145 -506h-90l145 506h-313zM592 551h440l166 573h-440z" />
<glyph unicode="$" horiz-adv-x="1044" d="M-20 115l106 362h43q-33 -109 -33 -192q0 -119 63.5 -179.5t168.5 -68.5l231 751q-119 112 -178 202t-59 192q0 183 122.5 299t331.5 116h31l39 129h61l-41 -137q82 -16 156 -54.5t123 -84.5l-90 -274h-43q24 82 24 145q0 84 -49.5 136.5t-140.5 66.5l-201 -654 q131 -124 191.5 -219t60.5 -202q0 -96 -36.5 -183t-103 -153.5t-166.5 -106.5t-220 -41l-43 -139h-64l43 141q-189 18 -327 148zM391 35q95 4 170.5 36t122 83.5t70.5 114t24 130.5q0 165 -172 342zM434 1217q0 -72 39.5 -142t124.5 -157l188 612h-14q-84 0 -150.5 -27 t-106.5 -72t-60.5 -99.5t-20.5 -114.5z" />
<glyph unicode="%" horiz-adv-x="1478" d="M158 0l1192 1638h77l-1189 -1638h-80zM289 1059q0 122 57 266t154 249t196 105q74 0 114 -57.5t40 -151.5q0 -90 -35 -199t-90.5 -202t-132 -156t-150.5 -63t-113.5 57.5t-39.5 151.5zM369 1026q0 -125 77 -125q74 0 151.5 107t125 248.5t47.5 246.5q0 123 -78 123 q-56 0 -116 -64.5t-104.5 -157t-73.5 -196.5t-29 -182zM803 182q0 122 57.5 266.5t154.5 249.5t195 105q74 0 115 -57.5t41 -151.5q0 -90 -35 -199t-91 -202.5t-132.5 -156.5t-151.5 -63q-74 0 -113.5 57.5t-39.5 151.5zM883 150q0 -125 80 -125q73 0 150.5 107t125 248.5 t47.5 246.5q0 125 -80 125q-56 0 -116 -65t-104.5 -158t-73.5 -197t-29 -182z" />
<glyph unicode="&#x26;" horiz-adv-x="1439" d="M10 301q0 82 26.5 158.5t68 136t106.5 119.5t126.5 104.5t143.5 95.5v33q0 134 36 253.5t93.5 202.5t128.5 144t142 90t133 29q75 0 120.5 -42t45.5 -122q0 -50 -16 -98t-40 -87t-64 -79.5t-77 -71t-90 -66t-91.5 -58.5t-92.5 -55q-13 -7 -19 -11q-22 -12 -90 -55 q5 -168 45.5 -354.5t118.5 -313.5q136 161 260 455q38 89 21.5 114t-125.5 25l16 43h418l-17 -43q-94 0 -143.5 -26.5t-85.5 -110.5q-150 -322 -311 -506q97 -125 229 -125q114 0 181 87.5t67 235.5q0 88 -23 183l39 14q35 -123 35 -221q0 -184 -94 -294t-254 -110 q-153 0 -270 140q-170 -148 -357 -148q-153 0 -246.5 85.5t-93.5 248.5zM139 317q0 -141 70.5 -206.5t181.5 -65.5q148 0 283 117q-86 129 -132 317t-57 367q-79 -55 -139 -110.5t-108 -121t-73.5 -140.5t-25.5 -157zM598 983q9 6 45 27q457 259 457 493q0 53 -27 81t-72 28 q-57 0 -125 -44t-130.5 -121t-104.5 -200.5t-43 -263.5z" />
<glyph unicode="'" horiz-adv-x="315" d="M293 1139q13 70 28 163t27 156t29 119q29 102 92 102q36 0 47.5 -27.5t-6.5 -82.5q-16 -56 -38.5 -113.5t-68.5 -162t-69 -158.5z" />
<glyph unicode="(" horiz-adv-x="702" d="M53 154q0 292 124.5 615.5t339 595t464.5 415.5l-6 -41q-211 -159 -395.5 -439.5t-293 -602.5t-108.5 -597q0 -340 156 -569l-15 -41q-128 125 -197 294t-69 370z" />
<glyph unicode=")" horiz-adv-x="702" d="M-246 -510l8 41q210 159 394 439.5t292.5 602.5t108.5 596q0 345 -156 570l17 41q127 -125 195.5 -294t68.5 -370q0 -219 -73.5 -463t-197.5 -463t-296.5 -405.5t-360.5 -294.5z" />
<glyph unicode="*" horiz-adv-x="815" d="M195 1098q0 52 69 84q24 11 122.5 31t195.5 65q-73 47 -176 74q-105 20 -105 78q0 38 28 62t64 24q51 0 101 -93q36 -71 106 -125q6 22 11 44t7 36t3.5 35.5t1.5 27.5v29v23q0 186 102 186q53 0 53 -53q0 -34 -26 -79t-66 -112.5t-63 -136.5q94 48 173 113t99 76 q49 29 70 29q24 0 37.5 -15.5t13.5 -36.5q0 -60 -90 -88q-23 -10 -113.5 -31.5t-183.5 -66.5q86 -56 164 -70q35 -8 56.5 -15t41.5 -23.5t20 -39.5q0 -29 -20 -49q-32 -37 -70 -37q-54 0 -102 89q-37 72 -107 124q-26 -89 -26 -190q0 -75 -6 -100q-9 -40 -33 -63t-60 -23 q-25 0 -40 17.5t-15 41.5q0 27 14 53t34.5 50t51 81t56.5 133q-95 -48 -172.5 -112t-118.5 -84q-29 -14 -45 -14q-30 0 -43.5 15t-13.5 36z" />
<glyph unicode="+" horiz-adv-x="972" d="M111 563l30 99h342l109 352h106l-108 -352h338l-29 -99h-340l-106 -348h-107l105 348h-340z" />
<glyph unicode="," horiz-adv-x="411" d="M-119 -207q91 31 144.5 89.5t58.5 119.5q-25 -14 -55 -14q-33 0 -52.5 21t-19.5 54q0 42 29 74.5t80 32.5q44 0 72 -30t28 -89q0 -31 -15 -69.5t-45 -80.5t-84.5 -82t-125.5 -67z" />
<glyph unicode="-" horiz-adv-x="815" d="M92 502l31 102h631l-29 -102h-633z" />
<glyph unicode="." horiz-adv-x="354" d="M-68 51q0 47 36.5 83t82.5 36q33 0 53.5 -20.5t20.5 -51.5q0 -46 -35.5 -82t-79.5 -36q-34 0 -56 20t-22 51z" />
<glyph unicode="/" horiz-adv-x="657" d="M-78 -33l903 1731h88l-901 -1731h-90z" />
<glyph unicode="0" horiz-adv-x="1060" d="M100 387q0 116 25.5 255.5t71.5 282.5t115 277.5t149.5 239.5t182 168t206.5 63q138 0 212.5 -107t74.5 -304q0 -99 -18.5 -217t-54.5 -242t-84.5 -244.5t-114 -226.5t-138 -187.5t-160.5 -128.5t-178 -47q-140 0 -214.5 108t-74.5 310zM223 319q0 -60 7.5 -106.5 t25 -87.5t52.5 -63.5t85 -22.5q99 0 196 91t171 235.5t132.5 316t89 341t30.5 302.5q0 61 -7.5 108t-26 87t-53.5 62t-85 22q-82 0 -164 -64.5t-148.5 -170t-124 -241.5t-96.5 -278.5t-61.5 -281t-22.5 -249.5z" />
<glyph unicode="1" horiz-adv-x="614" d="M-115 0l21 43q108 0 159.5 28t77.5 117l375 1227q9 31 13.5 45.5t7 33t0.5 24.5t-10 12t-20 4t-35 -7t-49 -14t-67 -24l7 53l321 119l16 -23l-444 -1450q-30 -92 -7.5 -118.5t140.5 -26.5l-18 -43h-488z" />
<glyph unicode="2" horiz-adv-x="960" d="M-109 0l5 45q1013 846 1013 1311q0 98 -45.5 154.5t-142.5 56.5q-142 0 -265.5 -138.5t-174.5 -359.5h-50q56 271 206 436.5t343 165.5q120 0 188 -69t68 -193q0 -115 -57 -253t-150.5 -271.5t-220 -273t-257.5 -259.5t-271 -231v-6h457q38 0 74 15.5t64 38.5t59 63.5 t54 76t54 90.5h45l-225 -399h-771z" />
<glyph unicode="3" horiz-adv-x="868" d="M-86 90q0 28 25.5 51t58.5 23q24 0 44.5 -13.5t37.5 -32.5t36.5 -38.5t53 -33t76.5 -13.5q106 0 205 69.5t161 189t62 255.5q0 154 -92 232.5t-271 78.5l11 45q243 71 387.5 210t144.5 290q0 82 -43 127t-129 45q-74 0 -136 -27t-105 -73.5t-72 -99t-47 -113.5h-46 q50 193 176.5 301t274.5 108q123 0 188.5 -65t65.5 -179q0 -85 -46 -171.5t-119 -153.5t-160.5 -118t-172.5 -73v-10q143 -6 232.5 -101.5t89.5 -244.5q0 -115 -49 -223t-130.5 -188t-193 -128.5t-231.5 -48.5q-111 0 -199 35.5t-88 87.5z" />
<glyph unicode="4" horiz-adv-x="995" d="M18 453l15 114l946 1104h100l-338 -1106h183l-35 -112h-182l-82 -265q-31 -92 -11 -118.5t131 -26.5l-16 -43h-448l16 43q96 0 142.5 28t74.5 117l80 265h-576zM113 565h516l295 953l-807 -945z" />
<glyph unicode="5" horiz-adv-x="858" d="M-63 92q0 27 24.5 49.5t58.5 22.5q25 0 45 -13.5t35.5 -32.5t33.5 -38.5t48 -33t70 -13.5q102 0 203 106.5t165 274t64 334.5q0 266 -190 266q-58 0 -107.5 -23.5t-110.5 -72.5l-45 49l226 671h536l-37 -114h-477l-168 -512l8 -4q110 96 240 96q120 0 188 -85t68 -247 q0 -144 -47.5 -289t-127 -259t-192.5 -185.5t-235 -71.5q-102 0 -189 36.5t-87 88.5z" />
<glyph unicode="6" horiz-adv-x="952" d="M55 338q0 118 34.5 250t97.5 265t160.5 261.5t215.5 237t269.5 195t316.5 132.5l8 -41q-227 -82 -420 -251.5t-331 -385.5q130 109 260 109q126 0 189 -90t63 -236q0 -75 -16 -162.5t-47 -179.5t-79.5 -176.5t-109 -151.5t-141.5 -107t-171 -40q-142 0 -220.5 98.5 t-78.5 272.5zM166 307q0 -130 51.5 -200t144.5 -70q80 0 152.5 54t122.5 139t87 188t55 202t18 181q0 110 -41.5 175.5t-130.5 65.5q-82 0 -170.5 -60.5t-161.5 -186.5q-127 -269 -127 -488z" />
<glyph unicode="7" horiz-adv-x="892" d="M55 25l928 1493l4 10l-471 -2q-95 0 -135 -36t-82 -165l-37 25l64 196l30 92h797l-997 -1661z" />
<glyph unicode="8" horiz-adv-x="942" d="M10 270q0 50 15.5 100.5t38.5 92.5t65 90t77.5 83.5t94.5 83t99 77t106 77.5q-43 57 -69.5 95t-55.5 91t-43 105.5t-14 106.5q0 171 125 286t313 115q149 0 231 -78.5t82 -199.5q0 -58 -24.5 -116.5t-59 -105.5t-96.5 -103.5t-111.5 -94.5t-128.5 -96q40 -52 61 -81 t52.5 -79t48 -88t29 -88.5t12.5 -98.5q0 -128 -66.5 -238t-181 -174.5t-248.5 -64.5q-158 0 -255 86.5t-97 216.5zM119 270q0 -100 66.5 -165.5t185.5 -65.5q154 0 256 110.5t102 268.5q0 102 -45 192t-129 199q-80 -57 -132.5 -97.5t-116 -99t-100 -108t-62 -111 t-25.5 -123.5zM449 1300q0 -90 40 -172.5t115 -181.5q84 62 142 111t113.5 108.5t83.5 120t28 121.5q0 86 -53 140.5t-160 54.5q-135 0 -222 -84.5t-87 -217.5z" />
<glyph unicode="9" horiz-adv-x="952" d="M-31 8q227 82 419 251t331 386q-128 -108 -260 -108q-126 0 -189 89.5t-63 235.5q0 91 22.5 197.5t70 216.5t112 199.5t159 146.5t201.5 57q142 0 220.5 -98t78.5 -272q0 -142 -48 -301.5t-143 -320t-224.5 -301t-306.5 -252.5t-374 -167zM330 846q0 -111 41 -176.5 t131 -65.5q79 0 165.5 60t161.5 182q129 270 129 493q0 131 -51 201t-143 70q-80 0 -152.5 -54t-122.5 -138.5t-87 -187.5t-54.5 -202.5t-17.5 -181.5z" />
<glyph unicode=":" horiz-adv-x="354" d="M-66 51q0 47 36.5 83t82.5 36q33 0 53.5 -20.5t20.5 -51.5q0 -46 -35.5 -82t-79.5 -36q-34 0 -56 20t-22 51zM217 977q0 46 36.5 81.5t82.5 35.5q33 0 53.5 -19.5t20.5 -50.5q0 -46 -35.5 -82.5t-79.5 -36.5q-34 0 -56 20.5t-22 51.5z" />
<glyph unicode=";" horiz-adv-x="411" d="M-119 -207q91 31 144.5 89.5t58.5 119.5q-25 -14 -55 -14q-33 0 -52.5 21t-19.5 54q0 42 29 74.5t80 32.5q44 0 72 -30t28 -89q0 -31 -15 -69.5t-45 -80.5t-84.5 -82t-125.5 -67zM217 977q0 45 36 81t81 36q35 0 55.5 -19.5t20.5 -50.5q0 -46 -35.5 -82.5t-81.5 -36.5 q-32 0 -54 20.5t-22 51.5z" />
<glyph unicode="&#x3c;" horiz-adv-x="868" d="M106 551l46 149l727 222l-39 -117l-621 -184l-2 -11l514 -182l-33 -100z" />
<glyph unicode="=" horiz-adv-x="843" d="M84 393l31 101h630l-28 -101h-633zM166 735l31 103h632l-30 -103h-633z" />
<glyph unicode="&#x3e;" horiz-adv-x="868" d="M43 328l37 116l620 187l2 10l-514 180l35 101l592 -222l-47 -149z" />
<glyph unicode="?" horiz-adv-x="722" d="M150 51q0 47 35.5 83t80.5 36q35 0 55.5 -20.5t20.5 -51.5q0 -46 -35.5 -82t-81.5 -36q-32 0 -53.5 20t-21.5 51zM203 688q0 44 17 87.5t40 76t67 74t76 67t89 68.5q171 132 240 214.5t69 180.5q0 71 -37.5 112.5t-118.5 41.5q-95 0 -152 -68t-96 -237h-39l52 315 q43 25 107.5 42t131.5 17q123 0 186.5 -60.5t63.5 -172.5q0 -46 -10 -88t-33 -80t-47.5 -69.5t-65.5 -68.5t-74.5 -65t-86.5 -69q-25 -19 -37 -29q-143 -111 -204.5 -178t-61.5 -135q0 -71 77 -138l-26 -34q-65 50 -96 95t-31 101z" />
<glyph unicode="@" horiz-adv-x="1974" d="M68 262q0 149 43.5 301.5t120 288.5t186 255.5t237.5 205.5t279.5 136t306.5 50q282 0 442 -156t160 -421q0 -139 -46 -280t-121 -252.5t-165 -200.5t-183 -137t-169 -48q-65 0 -99 31.5t-34 91.5q0 72 43 180l94 236h-24q-289 -543 -506 -543q-73 0 -113.5 57.5 t-40.5 157.5q0 98 37 219t102.5 236.5t146 213t176.5 157t185 59.5q91 0 138 -62t30 -159h4l70 170q30 0 59.5 17t47.5 44l26 -10l-321 -791q-50 -127 -50 -172q0 -63 66 -63q47 0 108.5 32t125.5 88t126.5 136.5t111 171.5t78.5 200.5t30 215.5q0 239 -144 378.5 t-397 139.5q-145 0 -286.5 -47.5t-260 -130t-220 -196t-172 -243t-110 -274.5t-39.5 -287q0 -309 178.5 -480t493.5 -171q312 0 572.5 171.5t429.5 493.5h53q-169 -346 -443 -537.5t-616 -191.5q-351 0 -549 195t-198 524zM598 236q0 -140 80 -140q68 0 166.5 98t181.5 226 t135 244q64 144 64 231q0 66 -34 98.5t-83 32.5q-78 0 -170 -79.5t-166 -196.5t-124 -258t-50 -256z" />
<glyph unicode="A" d="M-254 0l12 43q75 0 124.5 23t97.5 98l999 1507h82l-72 -1474q-1 -14 -1 -27q0 -75 26 -99q30 -28 143 -28l-18 -43h-496l14 43q88 0 129 13.5t56 43.5t18 97l21 335h-574l-241 -368q-44 -67 -47 -81q-6 -25 33 -33q33 -7 130 -7l-14 -43h-422zM350 596h533l51 868h-14z " />
<glyph unicode="B" horiz-adv-x="1165" d="M-100 0l14 43q116 0 158.5 27t70.5 118l387 1262q21 56 21 87q-1 20 -9 31q-22 27 -153 27l12 43h467q180 0 284.5 -79.5t104.5 -231.5q0 -123 -71.5 -222t-188 -155.5t-258.5 -68.5l-2 -11q170 -5 266.5 -86.5t96.5 -228.5q0 -161 -95.5 -289t-256.5 -197t-355 -69h-493 zM248 101q7 -13 39.5 -22t93.5 -9q258 0 423 141.5t165 347.5q0 65 -18.5 115t-49 81t-74.5 51t-90.5 28t-101.5 8q-108 0 -176 -8l-211 -701q-7 -19 0 -32zM485 918q57 -9 113 -9q108 0 206 30t172 83.5t117.5 133t43.5 173.5q0 244 -306 244q-142 0 -159 -51z" />
<glyph unicode="C" horiz-adv-x="1218" d="M109 479q0 123 30 260t83 268.5t132 251.5t170.5 210.5t203.5 144t228 53.5q95 0 159.5 -33.5t111.5 -101.5q19 -28 31 -26.5t24 32.5l45 115l41 -8l-151 -562h-43q17 101 17 188q-1 7 -1 15q-2 94 -21.5 162.5t-72.5 107.5t-138 39q-120 0 -233.5 -75t-198 -195.5 t-149.5 -267t-98 -295.5t-33 -275q0 -199 83.5 -314.5t237.5 -115.5q333 0 586 537h53q-52 -113 -99.5 -198.5t-111.5 -169.5t-131 -138.5t-154 -87.5t-184 -33q-105 0 -186 38.5t-131 108t-75 161.5t-25 204z" />
<glyph unicode="D" horiz-adv-x="1427" d="M-100 0l14 43q116 0 158.5 27t70.5 118l387 1262q21 56 21 87q-1 20 -9 31q-22 27 -153 27l12 43h482q262 0 422.5 -158t160.5 -429q0 -206 -82.5 -398.5t-223 -336t-338.5 -230t-416 -86.5h-506zM246 135q-6 -22 6.5 -36t52 -21.5t109.5 -7.5q189 0 361.5 85t294 223.5 t193.5 319.5t72 369q0 233 -122.5 369.5t-335.5 136.5q-189 0 -207 -68z" />
<glyph unicode="E" horiz-adv-x="1208" d="M-100 0l14 43q116 0 158.5 27t70.5 118l387 1262q21 56 21 87q-1 20 -9 31q-22 27 -153 27l12 43h949l-105 -348h-55q17 69 24 109t7 77t-14 54t-41.5 27t-73.5 10h-314q-90 0 -116 -86l-181 -588h307q84 0 125 35.5t72 132.5h45l-129 -440h-45q19 71 19 116q-1 27 -7 45 q-18 48 -98 47h-305l-197 -636q-16 -52 -16 -79q0 -13 4 -20q11 -22 68 -22h350q116 0 188.5 61.5t173.5 235.5l58 -15l-197 -354h-997z" />
<glyph unicode="F" horiz-adv-x="1130" d="M-100 0l14 43q116 0 158.5 27t70.5 118l387 1262q21 56 21 87q-1 20 -9 31q-22 27 -153 27l12 43h1004l-105 -348h-55q17 69 24 109.5t7 76.5t-13.5 53.5t-40.5 27.5t-71 10h-391q-71 0 -92 -68l-195 -637h330q86 0 127 35t74 133h45l-134 -459h-47q20 73 20 122 q0 29 -6 49q-18 56 -98 55h-329l-187 -609q-11 -36 -15 -53t-3.5 -37.5t10 -28t32.5 -15.5t57 -9.5t89 -1.5l-14 -43h-524z" />
<glyph unicode="G" horiz-adv-x="1392" d="M121 539q0 127 32.5 262.5t90.5 259.5t141 235.5t179 193t211 129.5t231 48q218 0 313 -158q6 -11 12.5 -15t13 1t11.5 18l55 140l41 -8l-147 -560h-43q14 85 14 160q0 21 -1 41q-5 94 -30.5 162.5t-87 107.5t-156.5 39q-111 0 -223 -62.5t-204 -170t-164 -242.5 t-112 -290.5t-40 -303.5q0 -224 100 -354.5t304 -130.5q95 0 187 39.5t161 114.5l116 419q14 43 14 75q0 34 -32 55q-31 20 -110 30t-222 10l15 43h608l-8 -43q-54 0 -83.5 -27t-54.5 -114l-139 -489q-210 -187 -475 -187q-134 0 -235 42.5t-162 120.5t-91 180t-30 229z" />
<glyph unicode="H" horiz-adv-x="1437" d="M-100 0l14 43q116 0 158.5 27t70.5 118l387 1262q21 56 21 87q-1 20 -9 31q-22 27 -153 27l12 43h494l-14 -43q-114 0 -156 -27t-70 -118l-166 -543h687l165 543q21 56 21 88q0 20 -8 30q-21 27 -148 27l13 43h489l-12 -43q-116 0 -159 -27t-71 -118l-387 -1262 q-19 -54 -19 -85q0 -22 9 -33q22 -27 152 -27l-13 -43h-491l12 43q114 0 156.5 27t70.5 118l197 648h-686l-199 -648q-21 -56 -21 -87q1 -20 9 -31q22 -27 150 -27l-13 -43h-493z" />
<glyph unicode="I" horiz-adv-x="624" d="M-100 0l14 43q116 0 158.5 27t70.5 118l387 1262q21 56 21 87q-1 20 -9 31q-22 27 -153 27l12 43h494l-12 -43q-115 0 -157.5 -27t-70.5 -118l-387 -1262q-21 -55 -21 -87q0 -20 9 -31q22 -27 154 -27l-15 -43h-495z" />
<glyph unicode="J" horiz-adv-x="835" d="M-61 170q0 72 35 126t87 54q26 0 42 -14t16 -39q0 -26 -36 -76.5t-36 -93.5q0 -42 28 -68t89 -26q45 0 83 20t67.5 54.5t58 91.5t50.5 118t48 148l295 985q11 36 15 53t3.5 37.5t-10 28t-32 15.5t-56.5 9.5t-88 1.5l14 43h516l-12 -43q-115 0 -157 -27t-70 -118 l-293 -975q-82 -273 -183.5 -390.5t-244.5 -117.5q-60 0 -106 17.5t-72 47.5t-38.5 64.5t-12.5 73.5z" />
<glyph unicode="K" horiz-adv-x="1320" d="M-100 0l14 43q116 0 158.5 27t70.5 118l387 1262q21 56 21 87q-1 20 -9 31q-22 27 -153 27l12 43h494l-12 -43q-115 0 -157.5 -27t-70.5 -118l-387 -1262q-21 -55 -21 -87q0 -20 9 -31q22 -27 154 -27l-15 -43h-495zM524 899l574 522q100 94 100 127q0 27 -28.5 37 t-112.5 10l10 43h502l-13 -43q-97 0 -157.5 -27.5t-157.5 -113.5l-592 -532l340 -744q37 -84 84.5 -109.5t149.5 -25.5l-15 -43h-532l10 43q94 1 138 17q45 17 46 52q0 31 -20 76z" />
<glyph unicode="L" horiz-adv-x="1124" d="M-100 0l14 43q116 0 158.5 27t70.5 118l387 1262q21 56 21 87q-1 20 -9 31q-22 27 -153 27l12 43h498l-12 -43q-117 0 -160.5 -27t-69.5 -118l-385 -1257q-15 -51 -15 -77q0 -14 4 -22q12 -22 75 -22h313q62 0 99.5 9.5t78 45t76 90.5t94.5 160l54 -17l-191 -360h-960z " />
<glyph unicode="M" horiz-adv-x="1759" d="M-100 0l14 43q116 0 158.5 27t70.5 118l385 1262q21 56 21 87q-1 20 -9 31q-22 27 -153 27l12 43h346l23 -1437h6l823 1437h351l-13 -43q-104 0 -142 -28t-60 -119l-308 -1258q-15 -46 -15 -76q0 -29 14 -43q29 -28 178 -28l-15 -43h-518l14 43q115 0 155 27.5t62 119.5 l320 1330h-8l-903 -1561h-58l-30 1540h-7l-401 -1311q-20 -55 -20 -86q0 -21 9 -32q22 -27 152 -27l-12 -43h-442z" />
<glyph unicode="N" horiz-adv-x="1460" d="M-100 0l14 43q116 0 158.5 27t70.5 118l400 1321q-22 52 -53 69t-91 17l11 43h233l393 -1421h17l377 1233q19 52 19 83q-1 23 -11 35q-26 27 -172 27l14 43h467l-12 -43q-117 0 -160.5 -27t-69.5 -118l-452 -1479h-76l-397 1422l-363 -1205q-19 -52 -19 -83q0 -23 10 -35 q26 -27 173 -27l-14 -43h-467z" />
<glyph unicode="O" horiz-adv-x="1304" d="M106 471q0 168 48.5 344t134.5 327t195 271t238 189t255 69q128 0 216 -66t128.5 -177t40.5 -259q0 -141 -34.5 -288.5t-94.5 -279t-144 -249t-179 -202t-203.5 -134t-214.5 -49.5q-127 0 -215.5 66t-129.5 177.5t-41 260.5zM240 457q0 -418 292 -418q122 0 250 105 t225 267.5t159.5 370t62.5 400.5q0 93 -15.5 166.5t-48.5 132t-91 90t-138 31.5q-122 0 -249.5 -105.5t-224.5 -268.5t-159.5 -370.5t-62.5 -400.5z" />
<glyph unicode="P" horiz-adv-x="1128" d="M-100 0l14 43q116 0 158.5 27t70.5 118l387 1262q21 56 21 87q-1 20 -9 31q-22 27 -153 27l12 43h480q193 0 300 -80t107 -251q0 -82 -26 -165t-78 -158t-124 -133.5t-172.5 -93t-213.5 -34.5q-136 0 -234 37l-174 -572q-8 -27 -12 -41t-6.5 -32.5t0 -26t10 -18t21 -14 t35.5 -7.5t50 -5t68 -1l-14 -43h-518zM463 831q116 -38 209 -38q98 0 180.5 32.5t138 85.5t95 122t57.5 140.5t18 141.5q0 258 -295 258q-102 0 -144 -16t-54 -58z" />
<glyph unicode="Q" horiz-adv-x="1320" d="M39 -182l51 141q46 -4 94 -4q104 0 222 20q-148 31 -224 164t-76 332q0 168 48.5 344t134.5 327t195 271t238 189t255 69q128 0 216 -66t128.5 -177t40.5 -259q0 -229 -86.5 -463t-231.5 -413.5t-313 -263.5q-77 -40 -163.5 -67.5t-165 -38.5t-129 -15t-95.5 -4l-6 -19 q55 6 111 6q67 0 140 -19.5t115.5 -38t129.5 -60.5q168 -82 319 -82q134 0 199 96l39 -20q-43 -82 -116 -132.5t-171 -50.5q-132 0 -344 117q-94 51 -143.5 75t-116 44t-125.5 20q-65 0 -170 -22zM240 457q0 -418 292 -418q122 0 250 105t225 267.5t159.5 370t62.5 400.5 q0 93 -15.5 166.5t-48.5 132t-91 90t-138 31.5q-122 0 -249.5 -105.5t-224.5 -268.5t-159.5 -370.5t-62.5 -400.5z" />
<glyph unicode="R" horiz-adv-x="1230" d="M-100 0l14 43q116 0 158.5 27t70.5 118l387 1262q21 56 21 87q-1 20 -9 31q-22 27 -153 27l12 43h441q198 0 305.5 -83.5t107.5 -235.5q0 -141 -88 -251q-89 -108 -237 -164q-130 -49 -282 -49q-22 0 -44 1l-6 -10q68 -9 110.5 -53.5t71.5 -139.5l113 -366 q23 -78 42 -121t50 -73t71.5 -40t106.5 -10l-12 -43h-92q-46 0 -77 5t-64 20.5t-56.5 44t-47 77t-44.5 119.5l-117 391q-29 93 -74 130t-114 42l-195 -641q-8 -27 -12 -41t-6.5 -32.5t0 -26t10 -18t21 -14t35.5 -7.5t50 -5t68 -1l-16 -43h-520zM492 915q23 -2 65 -2 q166 1 292 44.5t201.5 136t75.5 225.5q0 132 -80.5 193t-240.5 61q-57 0 -89.5 -16.5t-45.5 -57.5z" />
<glyph unicode="S" horiz-adv-x="980" d="M-20 0l137 514h45q-11 -53 -11 -104q-1 -60 15 -116q28 -104 106 -169.5t189 -65.5q75 0 133.5 28t92 74.5t50.5 100.5t17 113q0 107 -50 205t-149 225l-76 102q-74 97 -113.5 178.5t-39.5 184.5q0 78 26.5 148.5t76 127t130 90t180.5 33.5q92 0 159.5 -34.5 t133.5 -112.5q14 -14 25 -12.5t16 14.5l45 102h47l-127 -461h-45q11 68 11 126q0 118 -46 194q-70 112 -215 112q-143 0 -220 -88t-77 -215q0 -50 11 -94t35.5 -87t41.5 -68t52 -70l69 -92q97 -129 133 -189q89 -152 89 -286q0 -64 -16 -125t-49.5 -116t-81.5 -96t-117 -65 t-150 -24q-188 0 -328 165q-16 18 -29 18q-21 0 -36 -46l-39 -119h-51z" />
<glyph unicode="T" horiz-adv-x="1142" d="M160 0l12 43q117 0 160 27t71 118l400 1309q4 15 4 27q0 43 -55 43h-144q-41 0 -66 -2.5t-50 -15.5t-40 -27.5t-36.5 -51.5t-38.5 -73t-47 -107h-56l125 348h1028l-81 -348h-58q15 74 21 117q5 32 5 60q0 9 -1 18q-2 35 -18 50.5t-43 23.5t-74 8h-160q-68 0 -92 -70 l-400 -1309q-20 -53 -20 -84q0 -23 10 -34q24 -27 166 -27l-14 -43h-508z" />
<glyph unicode="U" horiz-adv-x="1402" d="M190 298v19q0 93 35 201l289 932q21 56 21 87q-1 20 -9 31q-22 27 -151 27l12 43h494l-13 -43q-117 0 -160 -27t-69 -118l-291 -942q-35 -109 -34 -196q0 -81 30 -142q62 -127 244 -127q376 0 538 520l273 887q9 28 12.5 41.5t6.5 32t0.5 26t-10 18t-20.5 14t-34.5 7.5 t-49 5t-67.5 1l14 43h430l-10 -43q-96 0 -133 -27t-65 -118l-273 -895q-26 -86 -55 -156.5t-69 -139t-89.5 -119.5t-111 -90.5t-140 -60t-170.5 -20.5q-124 0 -209 41t-123.5 114.5t-42.5 173.5z" />
<glyph unicode="V" horiz-adv-x="1359" d="M322 1595l14 43h473l-14 -43q-87 0 -128 -13t-57 -43t-20 -95l-94 -1245h14l870 1278q45 65 49 78q8 25 -29 33q-33 7 -130 7l14 43h430l-12 -43q-80 0 -132.5 -22.5t-103.5 -95.5l-1034 -1510h-65l96 1475q1 19 1 35q0 69 -20 91q-25 28 -122 27z" />
<glyph unicode="W" horiz-adv-x="1861" d="M322 1595l14 43h440l-12 -43q-77 0 -112.5 -13.5t-48.5 -43t-17 -96.5l-72 -1219h14l594 1137l4 82q1 19 1 35q0 69 -17 91q-21 28 -102 27l12 43h422l-12 -43q-110 0 -142.5 -28.5t-38.5 -124.5l-71 -1219h14l670 1243q38 71 39 88q2 24 -31 32q-35 9 -133 9l14 43h422 l-12 -43q-77 0 -125.5 -25t-91.5 -104l-826 -1499h-65l61 1245l-661 -1245h-64l74 1475q1 16 1 30q0 72 -22 95q-26 28 -120 28z" />
<glyph unicode="X" horiz-adv-x="1316" d="M-166 0l12 43q87 0 147 33t150 141l527 627l-154 604q-23 92 -59 119.5t-123 27.5l14 43h436l-12 -43q-114 0 -136 -28q-9 -12 -9 -36q0 -31 16 -83l129 -514l461 528q50 58 50 89q-1 9 -5 15q-20 28 -137 29l10 43h432l-10 -43q-79 0 -130 -30t-143 -133l-507 -574 l168 -668q23 -92 63.5 -119.5t142.5 -27.5l-14 -43h-481l14 43q126 0 151 28q12 13 12 40q0 30 -15 79l-146 578l-485 -594q-48 -57 -48 -86q1 -8 5 -16q20 -28 137 -29l-8 -43h-455z" />
<glyph unicode="Y" horiz-adv-x="1228" d="M217 0l12 43q117 0 160.5 27t71.5 118l164 533l-133 725q-17 93 -49.5 121t-118.5 28l12 43h455l-15 -43q-45 0 -73.5 -2t-48.5 -9.5t-29.5 -16.5t-12.5 -28.5t-1.5 -38.5t7.5 -54l109 -627h10l492 662q5 7 15 20q27 37 35 50.5t-1.5 26.5t-43.5 15t-108 2l15 43h424 l-13 -43q-77 0 -129 -21.5t-106 -92.5l-569 -758l-164 -535q-9 -29 -12.5 -41.5t-6.5 -31.5t-1 -26.5t9 -18t19.5 -14t33 -7.5t47 -5t64.5 -1l-14 -43h-506z" />
<glyph unicode="Z" horiz-adv-x="1052" d="M-63 0v43l1157 1524h-437q-120 0 -172 -55t-112 -232h-56l107 358h866l-1188 -1566h488q58 0 96.5 12.5t77 52.5t71.5 100t83 169h55l-160 -406h-876z" />
<glyph unicode="[" horiz-adv-x="507" d="M-213 -512l700 2294h336l-20 -70h-207l-659 -2154h208l-22 -70h-336z" />
<glyph unicode="\" horiz-adv-x="839" d="M373 1698h88l186 -1731h-88z" />
<glyph unicode="]" horiz-adv-x="507" d="M-299 -512l20 70h207l660 2154h-207l20 70h336l-700 -2294h-336z" />
<glyph unicode="^" horiz-adv-x="1103" d="M186 817l641 821h119l139 -821h-106l-115 711h-14l-547 -711h-117z" />
<glyph unicode="_" horiz-adv-x="1404" d="M-246 -262l25 78h1405l-23 -78h-1407z" />
<glyph unicode="`" horiz-adv-x="468" d="M209 1642h145l181 -364h-50z" />
<glyph unicode="a" horiz-adv-x="1007" d="M12 219q0 128 56 285.5t140.5 289t194 221t207.5 89.5q88 0 132 -60q37 -51 37 -132q0 -15 -1 -31h6l62 170q33 0 62.5 17t47.5 44l23 -10l-322 -883q-2 -7 -8 -24.5t-10 -28.5t-7 -25.5t-3 -23.5q0 -51 41 -51q59 0 123.5 83t124.5 213h43q-39 -95 -89.5 -176 t-119 -139.5t-134.5 -58.5q-108 0 -108 106q0 13 4 30t8 29t13 35.5t12 32.5l117 322h-19q-41 -89 -94 -180.5t-117.5 -180t-134.5 -144.5t-129 -56q-158 0 -158 237zM133 233q0 -153 72 -153q64 0 159.5 100.5t177.5 236t124 251.5q47 125 47 217q0 143 -101 143t-215 -132 t-189 -320t-75 -343z" />
<glyph unicode="b" horiz-adv-x="925" d="M16 57l459 1413q11 34 11 59q0 27 -14 41q-27 27 -138 27l12 41q161 0 210 9.5t79 48.5l24 -8l-344 -1061q42 89 88 166t102.5 151t119 117t120.5 43q150 0 150 -246q0 -106 -29 -228t-83.5 -237.5t-125 -210t-160.5 -152t-182 -57.5q-157 0 -299 84zM147 102 q67 -55 177 -55q87 0 172 79.5t144.5 199t96.5 258.5t37 258q0 82 -17.5 123t-60.5 41q-65 0 -155 -101.5t-165 -235t-124 -261.5z" />
<glyph unicode="c" horiz-adv-x="733" d="M33 274q0 181 80.5 376t210.5 326.5t260 131.5q68 0 110.5 -43t42.5 -119q0 -83 -39.5 -154t-89.5 -71q-25 0 -40 17.5t-15 43.5q0 25 17.5 46t38 34.5t38 40t17.5 62.5q0 32 -21 53.5t-68 21.5q-82 0 -161.5 -75.5t-134.5 -188.5t-89 -242.5t-34 -238.5q0 -105 32 -167 t97 -62q84 0 173 91.5t163 241.5h38q-84 -201 -193 -313.5t-222 -112.5q-100 0 -155.5 81.5t-55.5 219.5z" />
<glyph unicode="d" horiz-adv-x="1028" d="M12 219q0 128 56 285.5t140.5 289t194 221t207.5 89.5q88 0 132 -60q37 -51 37 -132q0 -15 -1 -31h2l197 589q11 30 11 52q0 30 -20 47q-34 28 -147 28l13 41q147 0 208.5 11.5t94.5 46.5l24 -8l-487 -1469q-25 -73 -25 -102q0 -51 41 -51q59 0 123.5 83t124.5 213h43 q-39 -95 -89.5 -176t-118.5 -139.5t-134 -58.5q-109 0 -109 106q0 27 31 127l107 322h-25q-32 -71 -71.5 -144.5t-91 -151.5t-102 -137.5t-106 -98t-102.5 -38.5q-81 0 -119.5 66t-38.5 180zM133 233q0 -163 72 -163q64 0 159 102t177 240t125 256q47 125 47 217 q0 143 -101 143t-215 -132t-189 -320t-75 -343z" />
<glyph unicode="e" horiz-adv-x="753" d="M23 252q0 122 49 271.5t126 278t182.5 215.5t207.5 87q71 0 113 -44.5t42 -117.5q0 -104 -81 -208t-212.5 -178t-275.5 -97q-29 -119 -29 -203q0 -92 39 -142.5t105 -50.5q93 0 183.5 99t168.5 268h41q-81 -208 -196.5 -332.5t-245.5 -124.5q-101 0 -159 74.5t-58 204.5z M188 516q188 42 321.5 160.5t133.5 265.5q0 98 -74 98q-75 0 -152 -80t-134 -196t-95 -248z" />
<glyph unicode="f" horiz-adv-x="557" d="M-483 -389q0 38 30 65t72 27q31 0 78.5 -22.5t77.5 -22.5q89 0 150.5 109t148.5 397l262 860h-189l17 53h188l35 117q28 93 51.5 156t61.5 130.5t81 107.5t107 65.5t143 25.5q63 0 90 -14.5t27 -46.5q0 -30 -20.5 -54t-55.5 -24q-28 0 -88.5 31t-95.5 31t-58 -26.5 t-48 -105.5q-16 -48 -39 -143t-35 -135l-35 -115h236l-19 -53h-233l-258 -850q-41 -134 -96.5 -244.5t-127 -197t-162 -135t-190.5 -48.5q-106 0 -106 62z" />
<glyph unicode="g" horiz-adv-x="897" d="M-229 -227q0 99 109 152t306 75q-72 34 -112.5 68.5t-40.5 78.5q0 49 45 85.5t103 54.5t130 28q-75 28 -117 101t-42 172q0 129 61 249.5t161.5 195.5t209.5 75q94 0 155 -64q46 31 100 48.5t97 17.5q80 0 80 -47q0 -24 -18 -44t-52 -20q-20 0 -60.5 13.5t-68.5 13.5 q-31 0 -53 -12q49 -73 49 -189q0 -123 -53.5 -239t-144 -192.5t-191.5 -88.5q-270 -38 -270 -119q0 -35 41 -64.5t141 -66.5l203 -78q114 -43 160 -85t46 -107q0 -118 -133.5 -189t-341.5 -71q-219 0 -359 71.5t-140 176.5zM-123 -217q0 -61 61.5 -105.5t155 -65 t203.5 -20.5q166 0 251 45t85 117q0 79 -137 129l-232 86l-14 6q-373 -50 -373 -192zM260 553q0 -92 32.5 -144.5t98.5 -52.5q83 0 156.5 79t114 194.5t40.5 228.5q0 197 -131 197q-83 0 -156.5 -79.5t-114 -194.5t-40.5 -228z" />
<glyph unicode="h" horiz-adv-x="985" d="M-2 0l477 1470q11 34 11 59q0 27 -14 41q-27 27 -138 27l12 41q133 0 199.5 13t89.5 45l24 -8l-397 -1221h17q160 341 286.5 489t233.5 148q56 0 86 -34t30 -93t-30.5 -157t-66.5 -181.5t-95.5 -218t-87.5 -201.5q-2 -6 -11 -31.5t-13.5 -42t-4.5 -28.5q0 -51 41 -51 q59 0 124.5 83.5t123.5 212.5h43q-29 -70 -65 -133.5t-79.5 -119t-94.5 -88.5t-101 -33q-109 0 -109 106q0 34 37 127q32 82 112 272.5t115 290.5t35 150q0 76 -49 76q-25 0 -59 -22.5t-78.5 -69t-98.5 -127.5t-114 -189t-131 -263t-143 -339h-117z" />
<glyph unicode="i" horiz-adv-x="585" d="M61 768q71 136 167 234t186 98q38 0 59 -26.5t21 -65.5q0 -59 -43 -170l-218 -619q-26 -81 -26 -102q0 -51 41 -51q59 0 124.5 83.5t123.5 212.5h43q-29 -70 -65 -133.5t-79.5 -119t-94.5 -88.5t-101 -33q-109 0 -109 106q0 34 33 127l215 619q41 125 41 145q0 39 -31 39 q-49 0 -117 -76t-127 -180h-43zM436 1448q0 45 28.5 71.5t74.5 26.5q45 0 71.5 -26.5t26.5 -71.5q0 -44 -27 -71t-71 -27q-46 0 -74.5 27t-28.5 71z" />
<glyph unicode="j" horiz-adv-x="512" d="M-475 -387q0 38 30 64t72 26q33 0 79 -22.5t81 -22.5q39 0 73 21.5t63 59t62 109t63 151.5t73 206l221 635q41 125 41 145q0 39 -31 39q-48 0 -116 -76.5t-127 -179.5h-43q71 136 166.5 234t185.5 98q38 0 59 -26.5t21 -65.5q0 -59 -43 -170l-222 -645 q-50 -147 -106 -257.5t-130 -201t-171 -138t-213 -47.5q-42 0 -65 18t-23 46zM418 1448q0 45 28 71.5t74 26.5q45 0 71.5 -26.5t26.5 -71.5q0 -44 -27 -71t-71 -27q-46 0 -74 27t-28 71z" />
<glyph unicode="k" horiz-adv-x="983" d="M-2 0l477 1470q11 34 11 59q0 27 -14 41q-27 27 -138 27l12 41q140 0 200 11.5t89 46.5l27 -8l-398 -1221h15q63 138 129 248t124 180.5t114 117t101.5 66t86.5 19.5q59 0 91.5 -36.5t32.5 -92.5q0 -51 -30 -115.5t-83 -128.5t-136 -119.5t-177 -81.5h-2q0 -56 11 -188 q6 -66 12.5 -110t18 -79t28.5 -51t41 -16q103 0 233 264h44q-37 -77 -69.5 -133.5t-74.5 -110.5t-89 -83t-97 -29q-81 0 -119.5 84t-46.5 245q-4 64 -4 123q0 42 2 80q102 28 185 81t131.5 113t74 117t25.5 101q0 72 -56 72q-32 0 -79.5 -30t-116 -105t-141.5 -185 t-160.5 -288t-169.5 -396h-115z" />
<glyph unicode="l" horiz-adv-x="532" d="M35 94q0 39 28 129l402 1247q13 36 13 61q0 26 -14 39q-27 27 -138 27l12 41q145 0 201.5 12t87.5 46l24 -8l-475 -1467q-22 -68 -22 -104q0 -51 41 -51q110 0 247 296h43q-39 -95 -89.5 -176t-118.5 -139.5t-134 -58.5q-108 0 -108 106z" />
<glyph unicode="m" horiz-adv-x="1468" d="M49 0l289 840q41 121 41 145q0 39 -31 39q-49 0 -117 -76t-127 -180h-43q71 136 167 234t186 98q38 0 59 -26.5t21 -65.5q0 -42 -45 -168l-136 -373h17q165 349 280 493t219 144q49 0 77 -34t28 -89q0 -34 -9.5 -76t-32 -99.5t-40 -98.5t-54 -121t-53.5 -119h15 q162 342 288 489.5t234 147.5q56 0 86.5 -34t30.5 -93q0 -76 -42 -194t-126.5 -306.5t-112.5 -257.5q-2 -7 -8 -24.5t-10 -28.5t-7 -25.5t-3 -23.5q0 -26 8.5 -38.5t31.5 -12.5q59 0 123.5 83t124.5 213h43q-39 -95 -89.5 -176t-118 -139.5t-132.5 -58.5q-108 0 -108 106 q0 29 35 127q32 81 88.5 216t89 214t59.5 161.5t27 121.5q0 76 -49 76q-65 0 -180 -139t-257 -429q-75 -157 -188 -442h-117l178 459q11 29 45 115t46.5 120t33 91.5t28 91t7.5 57.5q0 76 -49 76q-38 0 -94 -52.5t-131 -164t-173.5 -316t-205.5 -477.5h-117z" />
<glyph unicode="n" horiz-adv-x="1038" d="M49 0l289 840q41 121 41 145q0 39 -31 39q-49 0 -117 -76t-127 -180h-43q71 136 167 234t186 98q38 0 59 -26.5t21 -65.5q0 -42 -45 -168l-136 -373h17q162 342 287.5 489.5t232.5 147.5q56 0 86.5 -34t30.5 -93q0 -76 -39.5 -189.5t-130 -315t-111.5 -253.5 q-2 -6 -11 -31.5t-13.5 -42t-4.5 -28.5q0 -51 41 -51q59 0 124.5 83.5t123.5 212.5h43q-29 -70 -65 -133.5t-79.5 -119t-94.5 -88.5t-101 -33q-108 0 -108 106q0 34 37 127q32 82 112 272.5t115 290.5t35 150q0 76 -49 76q-30 0 -72.5 -30.5t-102.5 -106t-127 -187 t-151.5 -289t-171.5 -397.5h-117z" />
<glyph unicode="o" horiz-adv-x="882" d="M37 285q0 142 51 291.5t130 265.5t183 190t203 74q113 0 177.5 -87.5t64.5 -232.5q0 -141 -51.5 -289.5t-131.5 -263t-184.5 -187.5t-204.5 -73q-113 0 -175 84t-62 228zM156 281q0 -238 151 -238q69 0 145 69t136 175.5t99.5 243t39.5 262.5q0 112 -38.5 177.5 t-117.5 65.5q-69 0 -144 -70t-134.5 -177.5t-98 -245t-38.5 -262.5z" />
<glyph unicode="p" horiz-adv-x="974" d="M-195 -451l13 43q70 0 108 28.5t66 115.5l370 1182q-59 -107 -143.5 -205.5t-181.5 -159.5l-23 33q93 60 179.5 158.5t143.5 196t93 192.5l55 176h113l-223 -674h14q41 92 84.5 169.5t95.5 148t110 111t114 40.5q71 0 114 -66t43 -190q0 -90 -30.5 -206t-85 -230 t-121.5 -211t-148.5 -157t-158.5 -60q-60 0 -109.5 29.5t-77.5 82.5l-113 -360q-17 -49 -17 -79q0 -26 13 -39q27 -26 164 -26l-22 -43h-439zM270 254v-9q0 -85 34 -139q37 -57 97 -57q74 0 153.5 81t138.5 198.5t97.5 253.5t38.5 243q0 181 -86 181q-51 0 -119 -69.5 t-130 -173.5t-115.5 -218t-83.5 -209z" />
<glyph unicode="q" horiz-adv-x="923" d="M12 219q0 128 56 285.5t140.5 289t194 221t207.5 89.5q88 0 132 -60q36 -50 36 -129q0 -16 -2 -34h4l64 170q69 0 108 63l25 -10l-510 -1370q-26 -66 -26 -98q0 -12 4 -18q13 -26 108 -26l-14 -43h-445l17 43q105 0 156.5 26.5t82.5 109.5l303 815h-10q-28 -63 -57 -120 t-67 -125.5t-78 -123t-83 -102t-89.5 -73.5t-90.5 -26q-166 0 -166 246zM133 233q0 -82 17.5 -122.5t60.5 -40.5q64 0 157.5 102.5t172.5 239t123 256.5q47 125 47 217q0 143 -101 143q-75 0 -162 -80t-155.5 -198t-114 -259.5t-45.5 -257.5z" />
<glyph unicode="r" horiz-adv-x="761" d="M61 768q71 136 167 234t186 98q38 0 59 -26.5t21 -65.5q0 -42 -45 -168l-136 -373h15q51 144 106 255.5t106.5 182.5t105 116.5t100 64t92.5 18.5q65 0 65 -51q0 -35 -23 -62.5t-55 -27.5q-17 0 -45 10t-49 10q-44 0 -98 -49t-122 -156.5t-152 -306t-175 -471.5h-118 l276 840q37 123 37 145q0 39 -31 39q-49 0 -117 -76t-127 -180h-43z" />
<glyph unicode="s" horiz-adv-x="698" d="M-23 182q0 33 17.5 51.5t44.5 18.5q23 0 33 -16t24 -60q23 -70 65 -106.5t113 -36.5q80 0 123 53.5t43 140.5t-69 199l-62 106q-62 103 -87 162.5t-25 122.5q0 126 88.5 208.5t216.5 82.5q96 0 157.5 -53t61.5 -109q0 -31 -18.5 -49t-43.5 -18q-23 0 -34.5 16t-22.5 49 q-20 52 -50 79.5t-89 27.5q-73 0 -117.5 -47t-44.5 -130q0 -93 76 -219l59 -104q48 -84 65 -116t30.5 -73t13.5 -83q0 -134 -84.5 -220t-212.5 -86q-116 0 -193.5 65t-77.5 144z" />
<glyph unicode="t" horiz-adv-x="620" d="M57 96q0 44 29 133l272 795h-161l16 39q65 1 112.5 17t84.5 51.5t64 79.5t61 116h47l-93 -250h205l-16 -53h-205l-272 -791q-25 -88 -25 -110q0 -27 9 -40t34 -13q69 0 152.5 94.5t148.5 232.5h45q-44 -106 -105 -196.5t-140.5 -151.5t-155.5 -61q-107 0 -107 108z" />
<glyph unicode="u" horiz-adv-x="1046" d="M55 98q0 57 31.5 156t64.5 176.5t97.5 218.5t87.5 195q4 11 14 39.5t15 43t9.5 33t4.5 27.5q0 39 -31 39q-49 0 -117 -76t-127 -180h-43q71 136 167 234t186 98q38 0 59 -27t21 -67q0 -44 -50 -168q-31 -77 -87 -206.5t-88 -206.5t-60 -159.5t-31 -126.5q-1 -8 -1 -15 q0 -60 46 -60q70 0 166.5 100.5t208.5 300.5q91 164 164 334t80 276h149l-301 -874q-26 -75 -26 -103q0 -25 9 -37t32 -12q59 0 123 82t124 213h43q-28 -70 -64.5 -133.5t-80.5 -119.5t-95 -89t-100 -33q-108 0 -108 109q0 27 35 125l145 399h-16q-173 -336 -302.5 -483.5 t-234.5 -147.5q-56 0 -87.5 33.5t-31.5 91.5z" />
<glyph unicode="v" horiz-adv-x="868" d="M66 219q0 297 409 754h-12q-24 0 -105.5 20.5t-103.5 20.5t-33.5 -11.5t-11.5 -29.5q0 -20 22.5 -50.5t22.5 -54.5t-15 -39.5t-36 -15.5q-45 0 -45 61q0 52 35 121q24 52 55 75.5t80 23.5q26 0 103.5 -10.5t98.5 -10.5q29 0 58 25l2 2l26 -31q-177 -188 -303.5 -416 t-126.5 -401q0 -178 121 -178q99 0 212 135.5t186 313.5t73 306q0 47 -26.5 120t-26.5 98q0 59 55 59q40 0 62 -34t22 -95q0 -146 -57.5 -324.5t-144.5 -327.5t-198.5 -250.5t-209.5 -101.5q-188 0 -188 246z" />
<glyph unicode="w" horiz-adv-x="1275" d="M63 205q0 93 35 195.5t99 205.5t129 188t149 181q-6 -2 -14 -2q-24 0 -104.5 20.5t-102.5 20.5t-33.5 -11.5t-11.5 -29.5q0 -20 22.5 -50.5t22.5 -54.5t-15 -39.5t-36 -15.5q-19 0 -32 14.5t-13 44.5q0 55 32 123q25 52 57 75.5t81 23.5q25 0 102 -10.5t98 -10.5 q33 0 58 25l2 2l26 -31q-76 -83 -147.5 -179.5t-137 -207.5t-105.5 -228.5t-40 -217.5q0 -86 23 -123t74 -37q76 0 163 101t155 245t116 302t55 271h129q-23 -117 -67 -239.5t-81.5 -203t-66.5 -171t-29 -162.5q0 -143 97 -143q89 0 188.5 118.5t164 286.5t64.5 307 q0 57 -13.5 109.5t-26.5 90.5t-13 61q0 24 14 40.5t44 16.5q81 0 81 -164q0 -140 -49 -311t-125.5 -316t-179 -243.5t-199.5 -98.5q-69 0 -110 45t-41 121q0 56 24 150h-10q-154 -316 -329 -316q-80 0 -126.5 60t-46.5 172z" />
<glyph unicode="x" horiz-adv-x="1011" d="M-90 33q0 39 30.5 69.5t63.5 30.5q20 0 54.5 -10t58.5 -10q94 0 327 417l-10 236q-4 111 -11.5 163.5t-18 67.5t-31.5 15q-27 0 -73.5 -57.5t-104.5 -168.5h-43q84 165 145.5 238.5t134.5 73.5q40 0 62.5 -20.5t36 -80t18.5 -174.5l6 -172q150 240 254.5 344.5 t216.5 104.5q78 0 78 -53q0 -37 -27.5 -67t-62.5 -30q-17 0 -56.5 12.5t-60.5 12.5q-52 0 -133 -95.5t-205 -297.5l10 -258q4 -104 16 -161.5t26.5 -73t35.5 -15.5q31 0 71 51t109 174h41q-143 -311 -282 -311q-71 0 -98 76t-33 255l-6 136q-39 -70 -72 -121 q-107 -172 -201 -259t-184 -87q-44 0 -63 10.5t-19 34.5z" />
<glyph unicode="y" horiz-adv-x="884" d="M-233 -406q0 38 29.5 65.5t70.5 27.5q34 0 75.5 -20.5t71.5 -20.5q107 0 287 264q43 472 43 847v77q0 73 -5 112t-15 52.5t-29 13.5q-35 0 -81.5 -74t-94.5 -197h-41q131 357 260 357q65 0 91 -57.5t28 -198.5q0 -375 -45 -807q183 237 276.5 442t93.5 352 q0 59 -26.5 127.5t-26.5 90.5q0 24 15 41.5t42 17.5q84 0 84 -195q0 -315 -350 -815q-74 -107 -131.5 -182t-127.5 -152.5t-131.5 -124.5t-132 -76.5t-140.5 -29.5q-44 0 -67 17.5t-23 45.5z" />
<glyph unicode="z" horiz-adv-x="790" d="M-53 47q0 61 52.5 142.5t142 171t182 173t200 181.5t168.5 164q-38 -15 -69 -15q-35 0 -72.5 18.5t-65 40t-62.5 40t-65 18.5q-49 0 -87 -49t-56 -129h-39q17 83 42.5 143t54 90.5t54.5 44t52 13.5q32 0 64 -16.5t59.5 -39.5l55 -46t61.5 -39.5t69 -16.5q39 0 62.5 17.5 t23.5 45.5q0 12 -9 30t-9 26q0 16 12 27.5t33 11.5t35 -15t14 -37q0 -55 -54.5 -132t-144.5 -163t-185.5 -170.5t-200 -182.5t-165.5 -171q29 13 60 13q47 0 92.5 -20.5t80 -50t66 -59.5t63.5 -50.5t60 -20.5q45 0 69.5 49t24.5 121q0 89 -28 168l41 10q35 -84 35 -176 q0 -122 -48.5 -203.5t-126.5 -81.5q-42 0 -82 25.5t-72 62t-65 73t-75.5 62t-88.5 25.5q-32 0 -53.5 -17t-21.5 -51q0 -14 5 -36t5 -33q0 -20 -14 -32.5t-33 -12.5q-23 0 -35 16t-12 43z" />
<glyph unicode="{" horiz-adv-x="747" d="M57 -246q0 71 26 152t63 153t74 142t63 141.5t26 128.5q0 104 -55.5 146t-151.5 42l13 43q89 1 152 22.5t98 49.5t59.5 88.5t33 103.5t21.5 130q18 161 58 297q49 155 169.5 258t319.5 129l-12 -43q-68 -14 -122.5 -39.5t-92 -55t-67.5 -74t-47 -81.5t-31.5 -93.5 t-21 -95t-14.5 -100.5q-8 -71 -15 -118.5t-21 -106t-32 -96.5t-47.5 -78t-67.5 -63t-92 -38.5t-122 -17.5l-2 -6q84 -4 146.5 -57.5t62.5 -163.5q0 -64 -26.5 -139t-64.5 -146t-76 -141.5t-64.5 -147t-26.5 -141.5q0 -164 180 -205l-14 -43q-279 40 -279 264z" />
<glyph unicode="|" horiz-adv-x="516" d="M-57 -328l612 2007h104l-612 -2007h-104z" />
<glyph unicode="}" horiz-adv-x="745" d="M-236 -510l13 43q53 11 98 29t79 38.5t62.5 50.5t48.5 57t36.5 66.5t26.5 69.5t19 75t14 75.5t11 77.5q8 71 15 118.5t21 106t32 96.5t47.5 78t67.5 63t92 38.5t122 17.5l2 6q-38 2 -73 14.5t-65.5 37t-49 68.5t-18.5 101q0 63 26.5 138.5t64 146.5t75 141.5t64 147 t26.5 141.5q0 163 -179 205l13 43q278 -40 278 -264q0 -71 -26 -152t-63 -153t-74 -142t-63 -141.5t-26 -128.5q0 -54 16 -92.5t46 -58.5t65.5 -29t81.5 -9l-14 -43q-89 -1 -152 -22t-98.5 -49.5t-59.5 -87.5t-32.5 -103t-20.5 -129q-23 -177 -59 -299q-49 -155 -170 -258 t-320 -129z" />
<glyph unicode="~" horiz-adv-x="1132" d="M90 500q39 118 119.5 181.5t177.5 63.5q61 0 121 -22.5t102 -50t100.5 -50t116.5 -22.5q152 0 222 145l43 -4q-38 -117 -119 -181t-176 -64q-61 0 -122.5 22.5t-103.5 49t-101 49t-116 22.5q-155 0 -221 -143z" />
<glyph unicode="&#xa1;" horiz-adv-x="393" d="M-213 -541q0 26 12 68q11 38 63 171t145.5 394.5t197.5 595.5h43q-98 -330 -165.5 -596.5t-97.5 -402.5t-42 -174q-18 -60 -41 -87.5t-60 -27.5q-55 0 -55 59zM236 983q0 46 34.5 81.5t79.5 35.5q33 0 54.5 -19.5t21.5 -50.5q0 -47 -35.5 -83t-81.5 -36q-33 0 -53 20.5 t-20 51.5z" />
<glyph unicode="&#xa2;" horiz-adv-x="747" d="M-207 -451l297 502q-57 82 -57 223q0 181 80.5 376t210.5 326.5t260 131.5q64 0 106 -39l338 569h64l-367 -620q12 -30 12 -72q0 -83 -39.5 -154t-89.5 -71q-31 0 -45 24l-370 -626q32 -53 92 -53q84 0 173 91.5t163 241.5h38q-84 -201 -193 -313.5t-222 -112.5 q-67 0 -115 39l-274 -463h-62zM156 295q0 -63 12 -113l485 824q-20 34 -78 34q-82 0 -161.5 -75.5t-134.5 -188.5t-89 -242.5t-34 -238.5z" />
<glyph unicode="&#xa3;" horiz-adv-x="1130" d="M-74 70q0 80 68.5 132t161.5 52q58 0 133 -33q68 148 149 522l6 25h-217l21 63h211q23 101 43 177t50 169.5t60 160.5t73 135t90 110.5t109 69t132 26.5q108 0 160.5 -62t52.5 -159q0 -67 -29 -117.5t-78 -50.5q-27 0 -44 17.5t-17 42.5q0 26 24.5 78t24.5 81 q0 53 -25.5 79t-83.5 26q-217 0 -329 -432q-15 -59 -42.5 -176.5t-41.5 -174.5h311l-20 -63h-308q-98 -414 -202 -590q58 -33 87.5 -48.5t86 -32.5t110.5 -17q55 0 101.5 19.5t80.5 49t64.5 77t51.5 92t44 104.5h49q-16 -49 -30 -87.5t-36.5 -89t-45.5 -88t-56 -77 t-69.5 -64.5t-83.5 -41t-100 -16q-39 0 -78 10t-63 19t-64.5 35.5t-50 34t-52.5 40.5q-113 -139 -260 -139q-129 0 -129 111zM6 84q0 -53 68 -53q100 0 174 114q-59 39 -113 39q-57 0 -93 -29t-36 -71z" />
<glyph unicode="&#xa4;" horiz-adv-x="1296" d="M18 264l271 207q-33 68 -33 145q0 111 53.5 221.5t145.5 194.5l-140 203l66 49l139 -201q146 101 305 101q167 0 258 -109l273 209l45 -61l-277 -211q29 -66 29 -138q0 -111 -54 -221t-147 -194l144 -205l-66 -49l-141 203q-146 -101 -305 -101q-158 0 -252 101 l-269 -205zM342 633q0 -107 68 -174.5t186 -67.5q122 0 232 69t174.5 177.5t64.5 220.5q0 106 -69 174t-185 68q-124 0 -234 -69.5t-173.5 -177t-63.5 -220.5z" />
<glyph unicode="&#xa5;" horiz-adv-x="1228" d="M90 514l21 66h471l43 141l-4 27h-459l20 63h426l-116 635q-17 93 -49.5 121t-118.5 28l12 43h455l-15 -43q-45 0 -73.5 -2t-48.5 -9.5t-29.5 -16.5t-12.5 -28.5t-1.5 -38.5t7.5 -54l109 -627h10l492 662q5 7 15 20q27 37 35 50.5t-1.5 26.5t-43.5 15t-108 2l15 43h424 l-13 -43q-77 0 -129 -21.5t-106 -92.5l-504 -670h440l-18 -63h-469l-18 -25l-43 -143h477l-21 -66h-477l-100 -326q-9 -29 -12.5 -41.5t-6.5 -31.5t-1 -26.5t9 -18t19.5 -14t33 -7.5t47 -5t64.5 -1l-14 -43h-506l12 43q117 0 160.5 27t71.5 118l100 326h-471z" />
<glyph unicode="&#xa6;" horiz-adv-x="516" d="M-57 -328l250 820h104l-250 -820h-104zM305 860l250 819h104l-249 -819h-105z" />
<glyph unicode="&#xa7;" horiz-adv-x="839" d="M-57 -61q0 48 25 85t67 37q27 0 45 -15.5t18 -39.5q0 -12 -11 -46t-11 -56q0 -46 27 -67t85 -21q60 0 111.5 27t83.5 70t50 94t18 102q0 42 -16 84.5t-42 79.5t-57 74.5t-62.5 75t-57.5 75t-42 82t-16 88.5q0 85 42.5 165t106.5 141t156 122q-55 88 -55 178 q0 107 48.5 200t133.5 149t186 56q111 0 169.5 -57t58.5 -135q0 -48 -25 -83.5t-66 -35.5q-27 0 -45 14t-18 39q0 12 10 46t10 55q0 47 -26.5 67.5t-85.5 20.5q-80 0 -141 -46t-90 -111.5t-29 -135.5q0 -57 30 -115t72.5 -108.5t85 -101.5t72.5 -112t30 -122 q0 -118 -77.5 -223t-225.5 -205q56 -87 56 -176q0 -166 -108 -286t-263 -120q-110 0 -168.5 57t-58.5 134zM252 723q0 -50 22 -101.5t46 -83.5t71 -86.5t66 -80.5q237 161 237 334q0 50 -21.5 101.5t-46 83.5t-69.5 86.5t-65 80.5q-240 -163 -240 -334z" />
<glyph unicode="&#xa8;" horiz-adv-x="733" d="M379 1446q0 43 27.5 69.5t70.5 26.5t69.5 -26.5t26.5 -69.5t-26.5 -70.5t-69.5 -27.5t-70.5 27.5t-27.5 70.5zM719 1446q0 43 27.5 69.5t70.5 26.5t69.5 -26.5t26.5 -69.5t-26.5 -70.5t-69.5 -27.5t-70.5 27.5t-27.5 70.5z" />
<glyph unicode="&#xa9;" horiz-adv-x="1816" d="M113 567q0 137 42 275.5t116.5 262t181 231t231.5 185.5t273 122.5t300 44.5q287 0 454 -168.5t167 -440.5q0 -137 -42 -275.5t-117 -261.5t-182 -231t-232 -185.5t-273 -122t-299 -44.5q-287 0 -453.5 168t-166.5 440zM178 582q0 -256 153 -407.5t419 -151.5 q170 0 332.5 58t292.5 159.5t229.5 232.5t153.5 284.5t54 307.5q0 251 -152.5 404t-418.5 153q-142 0 -280.5 -41t-254 -113t-214.5 -172t-168 -214t-107.5 -243t-38.5 -257zM446 662q0 125 58 250t151 220t218.5 154.5t252.5 59.5q76 0 138.5 -19t94 -41.5t57.5 -41.5 t36 -19q15 0 23 14t26 66h43l-86 -379h-45q29 153 -53 251.5t-242 98.5q-106 0 -209.5 -54.5t-179.5 -141.5t-123 -199.5t-47 -223.5q0 -146 77.5 -226.5t215.5 -80.5q168 0 325.5 101.5t247.5 279.5h45q-101 -212 -272.5 -331t-372.5 -119q-179 0 -279 101.5t-100 279.5z " />
<glyph unicode="&#xab;" horiz-adv-x="829" d="M115 600l454 494h45l-385 -494l119 -500h-39zM401 600l455 494h43l-383 -494l119 -500h-41z" />
<glyph unicode="&#xac;" horiz-adv-x="1101" d="M70 770l34 104h998l-162 -526h-106l129 422h-893z" />
<glyph unicode="&#xad;" horiz-adv-x="815" d="M92 502l31 102h631l-29 -102h-633z" />
<glyph unicode="&#xae;" horiz-adv-x="1816" d="M113 567q0 137 42 275.5t116.5 262t181 231t231.5 185.5t273 122.5t300 44.5q287 0 454 -168.5t167 -440.5q0 -137 -42 -275.5t-117 -261.5t-182 -231t-232 -185.5t-273 -122t-299 -44.5q-287 0 -453.5 168t-166.5 440zM178 582q0 -256 153 -407.5t419 -151.5 q170 0 332.5 58t292.5 159.5t229.5 232.5t153.5 284.5t54 307.5q0 251 -152.5 404t-418.5 153q-142 0 -280.5 -41t-254 -113t-214.5 -172t-168 -214t-107.5 -243t-38.5 -257zM465 291l8 41q70 0 101 25t55 106l221 721q31 83 18.5 107t-106.5 24l8 41h342q129 0 201.5 -58.5 t72.5 -167.5q0 -130 -112.5 -216.5t-280.5 -86.5h-30l-2 -4q45 -7 72 -48.5t52 -127.5l58 -186q24 -80 61.5 -106.5t118.5 -26.5l-6 -37h-49q-43 0 -65.5 2t-49 9.5t-42 24t-31.5 45t-29 72.5l-58 197q-33 108 -61 146t-98 51l-117 -375q-30 -82 -18 -106.5t104 -24.5 l-8 -41h-330zM850 893q55 -19 125 -19q141 0 232 74t91 191q0 164 -196 164q-127 0 -146 -66z" />
<glyph unicode="&#xaf;" horiz-adv-x="694" d="M346 1397l23 78h499l-22 -78h-500z" />
<glyph unicode="&#xb0;" horiz-adv-x="608" d="M211 1311q0 96 53.5 185t142.5 143.5t187 54.5q101 0 163 -60.5t62 -160.5q0 -147 -116.5 -265t-264.5 -118q-103 0 -165 59t-62 162zM301 1327q0 -78 40 -119t116 -41q104 0 189 90t85 199q0 77 -41 117.5t-119 40.5q-104 0 -187 -89t-83 -198z" />
<glyph unicode="&#xb1;" horiz-adv-x="1005" d="M10 174l37 102h803l-37 -102h-803zM156 711l28 96h342l109 352h106l-106 -352h338l-31 -96h-340l-106 -351h-107l107 351h-340z" />
<glyph unicode="&#xb4;" horiz-adv-x="468" d="M340 1278l242 364h145l-338 -364h-49z" />
<glyph unicode="&#xb6;" horiz-adv-x="1222" d="M225 -451l412 1338q-163 0 -255.5 66t-92.5 190q0 107 46 200t123.5 157t181.5 101t218 37h578l-15 -43q-116 0 -158.5 -27t-70.5 -118l-582 -1901h-84l617 2020h-215l-617 -2020h-86z" />
<glyph unicode="&#xb7;" horiz-adv-x="352" d="M166 807q0 46 35.5 81.5t81.5 35.5q33 0 53 -19.5t20 -50.5q0 -46 -35 -82.5t-79 -36.5q-33 0 -54.5 20.5t-21.5 51.5z" />
<glyph unicode="&#xb8;" horiz-adv-x="620" d="M-209 -457l21 41h61q124 0 191 52.5t67 121.5q0 92 -129 92l76 170h61l-55 -124q66 -3 109 -39t43 -99q0 -90 -92 -156.5t-246 -66.5q-58 0 -107 8z" />
<glyph unicode="&#xbb;" horiz-adv-x="829" d="M-35 102l385 494l-119 500h41l193 -500l-455 -494h-45zM252 102l385 494l-121 500h41l193 -500l-453 -494h-45z" />
<glyph unicode="&#xbc;" horiz-adv-x="1497" d="M188 0l1194 1638h78l-1192 -1638h-80zM197 672l14 26q75 0 109.5 16.5t50.5 69.5l221 727q17 55 9 63q-11 11 -94 -24l-28 -12l4 33l230 100l14 -16l-266 -871q-9 -30 -10 -45t12 -25.5t38 -13t74 -2.5l-14 -26h-364zM721 272l20 72l602 653h74l-198 -653h108l-22 -72 h-109l-49 -159q-18 -55 -3.5 -70.5t91.5 -15.5l-12 -27h-316l13 27q65 0 96 16.5t47 69.5l49 159h-391zM797 344h338l170 555l-506 -551z" />
<glyph unicode="&#xbd;" horiz-adv-x="1712" d="M197 672l14 26q75 0 109.5 16.5t50.5 69.5l221 727q17 55 9 63q-11 11 -94 -24l-28 -12l4 33l230 100l14 -16l-266 -871q-9 -30 -10 -45t12 -25.5t38 -13t74 -2.5l-14 -26h-364zM238 0l1192 1638h77l-1190 -1638h-79zM831 0l9 27q84 69 134 110.5t128 109.5t125 116 t103 112.5t87 117t52.5 111t21.5 111.5q0 46 -29.5 74.5t-87.5 28.5q-89 0 -163 -78.5t-113 -208.5h-35q51 166 151 267t224 101q80 0 117.5 -39.5t37.5 -107.5q0 -69 -39 -152t-99.5 -160.5t-145.5 -162.5t-165.5 -153t-170.5 -138v-4h299q22 0 41.5 7t32 15t31 31 t27.5 36.5t32 49.5h30l-129 -221h-506z" />
<glyph unicode="&#xbe;" horiz-adv-x="1656" d="M242 729q0 22 16.5 38.5t40.5 16.5q19 0 34.5 -14t26.5 -30t35 -30t56 -14q105 0 185.5 86t80.5 207q0 95 -53 145t-152 50l4 26q145 52 222 126.5t77 168.5q0 105 -110 105q-155 0 -211 -191h-35q35 128 111 191t175 63q77 0 119.5 -39t42.5 -112q0 -99 -79 -180.5 t-201 -127.5v-6q80 -3 134 -61.5t54 -151.5q0 -135 -117 -238.5t-278 -103.5q-67 0 -122.5 22.5t-55.5 53.5zM342 0l1192 1638h78l-1190 -1638h-80zM879 272l22 72l600 653h76l-199 -653h109l-23 -72h-108l-49 -159q-19 -55 -4.5 -70.5t90.5 -15.5l-11 -27h-315l10 27 q67 0 98.5 16.5t47.5 69.5l47 159h-391zM956 344h336l172 555l-506 -551z" />
<glyph unicode="&#xbf;" horiz-adv-x="724" d="M-172 -365q0 40 9 77.5t21 67t38.5 64t46 56.5t60.5 58t64.5 55t74.5 59q25 20 38 30q73 58 114 92.5t81 76t57 76t17 69.5q0 73 -80 137l26 35q67 -50 98 -94.5t31 -100.5q0 -32 -9.5 -64t-21 -57t-37.5 -56t-43.5 -49.5t-56 -50.5t-57 -47t-63.5 -49 q-171 -132 -241.5 -215.5t-70.5 -179.5q0 -71 38 -112t120 -41q93 0 150.5 67.5t97.5 235.5h39l-54 -314q-40 -26 -105 -43.5t-134 -17.5q-121 0 -184.5 61.5t-63.5 173.5zM385 983q0 46 35.5 81.5t79.5 35.5q34 0 54.5 -19.5t20.5 -50.5q0 -47 -35 -83t-81 -36 q-33 0 -53.5 20.5t-20.5 51.5z" />
<glyph unicode="&#xc0;" d="M-254 0l12 43q75 0 124.5 23t97.5 98l999 1507h82l-72 -1474q-5 -98 25 -126t143 -28l-18 -43h-496l14 43q88 0 129 13.5t56 43.5t18 97l21 335h-574l-241 -368q-44 -67 -47 -81q-6 -25 33 -33q33 -7 130 -7l-14 -43h-422zM350 596h533l51 868h-14zM756 2152h145 l180 -364h-49z" />
<glyph unicode="&#xc1;" d="M-254 0l12 43q75 0 124.5 23t97.5 98l999 1507h82l-72 -1474q-5 -98 25 -126t143 -28l-18 -43h-496l14 43q88 0 129 13.5t56 43.5t18 97l21 335h-574l-241 -368q-44 -67 -47 -81q-6 -25 33 -33q33 -7 130 -7l-14 -43h-422zM350 596h533l51 868h-14zM1040 1788l242 364 h145l-337 -364h-50z" />
<glyph unicode="&#xc2;" d="M-254 0l12 43q75 0 124.5 23t97.5 98l999 1507h82l-72 -1474q-5 -98 25 -126t143 -28l-18 -43h-496l14 43q88 0 129 13.5t56 43.5t18 97l21 335h-574l-241 -368q-44 -67 -47 -81q-6 -25 33 -33q33 -7 130 -7l-14 -43h-422zM350 596h533l51 868h-14zM786 1788l291 364h144 l61 -364h-47l-109 287l-290 -287h-50z" />
<glyph unicode="&#xc3;" d="M-254 0l12 43q75 0 124.5 23t97.5 98l999 1507h82l-72 -1474q-5 -98 25 -126t143 -28l-18 -43h-496l14 43q88 0 129 13.5t56 43.5t18 97l21 335h-574l-241 -368q-44 -67 -47 -81q-6 -25 33 -33q33 -7 130 -7l-14 -43h-422zM350 596h533l51 868h-14zM766 1841 q39 111 89 171.5t122 60.5q35 0 64 -14t49 -34.5t39 -41t43 -34.5t51 -14q51 0 84.5 36.5t60.5 107.5l41 -4q-77 -230 -211 -230q-35 0 -64 14t-49 33.5t-39 39.5t-43 34t-51 14q-49 0 -82.5 -36.5t-60.5 -106.5z" />
<glyph unicode="&#xc4;" d="M-254 0l12 43q75 0 124.5 23t97.5 98l999 1507h82l-72 -1474q-5 -98 25 -126t143 -28l-18 -43h-496l14 43q88 0 129 13.5t56 43.5t18 97l21 335h-574l-241 -368q-44 -67 -47 -81q-6 -25 33 -33q33 -7 130 -7l-14 -43h-422zM350 596h533l51 868h-14zM836 1958 q0 43 27.5 69.5t70.5 26.5q44 0 71 -26.5t27 -69.5t-27 -70.5t-71 -27.5q-43 0 -70.5 27.5t-27.5 70.5zM1176 1958q0 43 27.5 69.5t70.5 26.5t69.5 -26.5t26.5 -69.5t-26.5 -70.5t-69.5 -27.5t-70.5 27.5t-27.5 70.5z" />
<glyph unicode="&#xc5;" d="M-254 0l12 43q75 0 124.5 23t97.5 98l999 1507h82l-72 -1474q-5 -98 25 -126t143 -28l-18 -43h-496l14 43q88 0 129 13.5t56 43.5t18 97l21 335h-574l-241 -368q-44 -67 -47 -81q-6 -25 33 -33q33 -7 130 -7l-14 -43h-422zM350 596h533l51 868h-14zM903 1950 q0 88 75 164.5t173 76.5q66 0 105.5 -39t39.5 -100q0 -89 -74 -167.5t-173 -78.5q-67 0 -106.5 41t-39.5 103zM973 1954q0 -38 21 -63t65 -25q74 0 121 62.5t47 121.5q0 37 -20.5 59.5t-65.5 22.5q-75 0 -121.5 -58t-46.5 -120z" />
<glyph unicode="&#xc6;" horiz-adv-x="1771" d="M-254 0l12 43q81 0 134.5 21.5t107.5 93.5l969 1323q48 66 53 77q10 24 -23 31q-29 6 -116 6l12 43h1018l-105 -348h-55q17 69 24 109t7 77t-14 54t-41.5 27t-73.5 10h-314q-88 0 -114 -86l-180 -588h305q84 0 124.5 35t71.5 133h45l-129 -440h-45q31 113 12.5 160.5 t-98.5 47.5h-305l-197 -636q-21 -77 -10.5 -99t66.5 -22h352q114 0 186.5 61.5t173.5 235.5l58 -15l-197 -354h-997l14 43q116 0 159 27t71 118l108 353h-459l-280 -383q-49 -66 -54 -78q-9 -24 25 -31q28 -6 113 -6l-15 -43h-399zM401 602h433l294 965h-20z" />
<glyph unicode="&#xc7;" horiz-adv-x="1218" d="M109 479q0 123 30 260t83 268.5t132 251.5t170.5 210.5t203.5 144t228 53.5q95 0 159.5 -33.5t111.5 -101.5q19 -28 31 -26.5t24 32.5l45 115l41 -8l-151 -562h-43q18 109 16.5 202.5t-21.5 162.5t-73 108t-138 39q-120 0 -233.5 -75t-198 -195.5t-149.5 -267t-98 -295.5 t-33 -275q0 -199 83.5 -314.5t237.5 -115.5q333 0 586 537h53q-52 -113 -99.5 -198.5t-111.5 -169.5t-131 -138.5t-154 -87.5t-184 -33h-6l-31 -69q66 -3 109 -38.5t43 -97.5q0 -91 -91.5 -158t-244.5 -67q-34 0 -108 8l20 43q18 -2 62 -2q124 0 191 53t67 121q0 93 -129 93 l53 118q-118 15 -198 85.5t-117 177.5t-37 245z" />
<glyph unicode="&#xc8;" horiz-adv-x="1208" d="M-100 0l14 43q116 0 158.5 27t70.5 118l387 1262q34 91 12.5 118t-153.5 27l12 43h949l-105 -348h-55q17 69 24 109t7 77t-14 54t-41.5 27t-73.5 10h-314q-90 0 -116 -86l-181 -588h307q84 0 125 35.5t72 132.5h45l-129 -440h-45q31 113 12.5 160.5t-98.5 47.5h-305 l-197 -636q-23 -77 -12 -99t68 -22h350q116 0 188.5 61.5t173.5 235.5l58 -15l-197 -354h-997zM672 2152h145l180 -364h-49z" />
<glyph unicode="&#xc9;" horiz-adv-x="1208" d="M-100 0l14 43q116 0 158.5 27t70.5 118l387 1262q34 91 12.5 118t-153.5 27l12 43h949l-105 -348h-55q17 69 24 109t7 77t-14 54t-41.5 27t-73.5 10h-314q-90 0 -116 -86l-181 -588h307q84 0 125 35.5t72 132.5h45l-129 -440h-45q31 113 12.5 160.5t-98.5 47.5h-305 l-197 -636q-23 -77 -12 -99t68 -22h350q116 0 188.5 61.5t173.5 235.5l58 -15l-197 -354h-997zM958 1788l242 364h146l-338 -364h-50z" />
<glyph unicode="&#xca;" horiz-adv-x="1208" d="M-100 0l14 43q116 0 158.5 27t70.5 118l387 1262q34 91 12.5 118t-153.5 27l12 43h949l-105 -348h-55q17 69 24 109t7 77t-14 54t-41.5 27t-73.5 10h-314q-90 0 -116 -86l-181 -588h307q84 0 125 35.5t72 132.5h45l-129 -440h-45q31 113 12.5 160.5t-98.5 47.5h-305 l-197 -636q-23 -77 -12 -99t68 -22h350q116 0 188.5 61.5t173.5 235.5l58 -15l-197 -354h-997zM705 1788l290 364h144l61 -364h-47l-109 287l-290 -287h-49z" />
<glyph unicode="&#xcb;" horiz-adv-x="1208" d="M-100 0l14 43q116 0 158.5 27t70.5 118l387 1262q34 91 12.5 118t-153.5 27l12 43h949l-105 -348h-55q17 69 24 109t7 77t-14 54t-41.5 27t-73.5 10h-314q-90 0 -116 -86l-181 -588h307q84 0 125 35.5t72 132.5h45l-129 -440h-45q31 113 12.5 160.5t-98.5 47.5h-305 l-197 -636q-23 -77 -12 -99t68 -22h350q116 0 188.5 61.5t173.5 235.5l58 -15l-197 -354h-997zM754 1958q0 43 27.5 69.5t70.5 26.5q44 0 71 -26.5t27 -69.5t-27 -70.5t-71 -27.5q-43 0 -70.5 27.5t-27.5 70.5zM1094 1958q0 43 27.5 69.5t70.5 26.5t69.5 -26.5t26.5 -69.5 t-26.5 -70.5t-69.5 -27.5t-70.5 27.5t-27.5 70.5z" />
<glyph unicode="&#xcc;" horiz-adv-x="624" d="M-100 0l14 43q116 0 158.5 27t70.5 118l387 1262q34 91 12.5 118t-153.5 27l12 43h494l-12 -43q-115 0 -157.5 -27t-70.5 -118l-387 -1262q-34 -91 -12 -118t154 -27l-15 -43h-495zM406 2152h145l180 -364h-49z" />
<glyph unicode="&#xcd;" horiz-adv-x="624" d="M-100 0l14 43q116 0 158.5 27t70.5 118l387 1262q34 91 12.5 118t-153.5 27l12 43h494l-12 -43q-115 0 -157.5 -27t-70.5 -118l-387 -1262q-34 -91 -12 -118t154 -27l-15 -43h-495zM692 1788l242 364h145l-338 -364h-49z" />
<glyph unicode="&#xce;" horiz-adv-x="624" d="M-100 0l14 43q116 0 158.5 27t70.5 118l387 1262q34 91 12.5 118t-153.5 27l12 43h494l-12 -43q-115 0 -157.5 -27t-70.5 -118l-387 -1262q-34 -91 -12 -118t154 -27l-15 -43h-495zM438 1788l291 364h143l62 -364h-47l-109 287l-291 -287h-49z" />
<glyph unicode="&#xcf;" horiz-adv-x="624" d="M-100 0l14 43q116 0 158.5 27t70.5 118l387 1262q34 91 12.5 118t-153.5 27l12 43h494l-12 -43q-115 0 -157.5 -27t-70.5 -118l-387 -1262q-34 -91 -12 -118t154 -27l-15 -43h-495zM487 1958q0 42 28 69t71 27q44 0 71 -26.5t27 -69.5t-27 -70.5t-71 -27.5 q-43 0 -71 27.5t-28 70.5zM827 1958q0 42 28 69t71 27t69.5 -26.5t26.5 -69.5t-26.5 -70.5t-69.5 -27.5t-71 27.5t-28 70.5z" />
<glyph unicode="&#xd0;" horiz-adv-x="1427" d="M-100 0l14 43q116 0 158.5 27t70.5 118l201 654h-192l20 63h190l168 545q34 91 12.5 118t-153.5 27l12 43h482q262 0 422.5 -158t160.5 -429q0 -206 -82.5 -398.5t-223 -336t-338.5 -230t-416 -86.5h-506zM246 135q-6 -22 6.5 -36t52 -21.5t109.5 -7.5q189 0 361.5 85 t294 223.5t193.5 319.5t72 369q0 233 -122.5 369.5t-335.5 136.5q-189 0 -207 -68l-187 -600h379l-20 -63h-377z" />
<glyph unicode="&#xd1;" horiz-adv-x="1460" d="M-100 0l14 43q116 0 158.5 27t70.5 118l400 1321q-22 52 -53 69t-91 17l11 43h233l393 -1421h17l377 1233q34 91 8.5 118t-172.5 27l14 43h467l-12 -43q-117 0 -160.5 -27t-69.5 -118l-452 -1479h-76l-397 1422l-363 -1205q-34 -91 -8.5 -118t172.5 -27l-14 -43h-467z M776 1841q39 111 89 171.5t122 60.5q35 0 64 -14t49 -34.5t39 -41t43 -34.5t51 -14q51 0 84.5 36.5t60.5 107.5l41 -4q-77 -230 -211 -230q-35 0 -64 14t-49 33.5t-38.5 39.5t-42.5 34t-51 14q-50 0 -83.5 -36.5t-60.5 -106.5z" />
<glyph unicode="&#xd2;" horiz-adv-x="1304" d="M106 471q0 168 48.5 344t134.5 327t195 271t238 189t255 69q128 0 216 -66t128.5 -177t40.5 -259q0 -141 -34.5 -288.5t-94.5 -279t-144 -249t-179 -202t-203.5 -134t-214.5 -49.5q-127 0 -215.5 66t-129.5 177.5t-41 260.5zM240 457q0 -418 292 -418q122 0 250 105 t225 267.5t159.5 370t62.5 400.5q0 93 -15.5 166.5t-48.5 132t-91 90t-138 31.5q-122 0 -249.5 -105.5t-224.5 -268.5t-159.5 -370.5t-62.5 -400.5zM768 2152h145l181 -364h-50z" />
<glyph unicode="&#xd3;" horiz-adv-x="1304" d="M106 471q0 168 48.5 344t134.5 327t195 271t238 189t255 69q128 0 216 -66t128.5 -177t40.5 -259q0 -141 -34.5 -288.5t-94.5 -279t-144 -249t-179 -202t-203.5 -134t-214.5 -49.5q-127 0 -215.5 66t-129.5 177.5t-41 260.5zM240 457q0 -418 292 -418q122 0 250 105 t225 267.5t159.5 370t62.5 400.5q0 93 -15.5 166.5t-48.5 132t-91 90t-138 31.5q-122 0 -249.5 -105.5t-224.5 -268.5t-159.5 -370.5t-62.5 -400.5zM1053 1788l241 364h146l-338 -364h-49z" />
<glyph unicode="&#xd4;" horiz-adv-x="1304" d="M106 471q0 168 48.5 344t134.5 327t195 271t238 189t255 69q128 0 216 -66t128.5 -177t40.5 -259q0 -141 -34.5 -288.5t-94.5 -279t-144 -249t-179 -202t-203.5 -134t-214.5 -49.5q-127 0 -215.5 66t-129.5 177.5t-41 260.5zM240 457q0 -418 292 -418q122 0 250 105 t225 267.5t159.5 370t62.5 400.5q0 93 -15.5 166.5t-48.5 132t-91 90t-138 31.5q-122 0 -249.5 -105.5t-224.5 -268.5t-159.5 -370.5t-62.5 -400.5zM799 1788l291 364h143l61 -364h-47l-108 287l-291 -287h-49z" />
<glyph unicode="&#xd5;" horiz-adv-x="1304" d="M106 471q0 168 48.5 344t134.5 327t195 271t238 189t255 69q128 0 216 -66t128.5 -177t40.5 -259q0 -141 -34.5 -288.5t-94.5 -279t-144 -249t-179 -202t-203.5 -134t-214.5 -49.5q-127 0 -215.5 66t-129.5 177.5t-41 260.5zM240 457q0 -418 292 -418q122 0 250 105 t225 267.5t159.5 370t62.5 400.5q0 93 -15.5 166.5t-48.5 132t-91 90t-138 31.5q-122 0 -249.5 -105.5t-224.5 -268.5t-159.5 -370.5t-62.5 -400.5zM778 1841q39 111 89 171.5t122 60.5q35 0 64 -14t49 -34.5t39 -41t43 -34.5t51 -14q51 0 84.5 36.5t60.5 107.5l41 -4 q-77 -230 -211 -230q-35 0 -64 14t-49 33.5t-38.5 39.5t-42.5 34t-51 14q-50 0 -83.5 -36.5t-60.5 -106.5z" />
<glyph unicode="&#xd6;" horiz-adv-x="1304" d="M106 471q0 168 48.5 344t134.5 327t195 271t238 189t255 69q128 0 216 -66t128.5 -177t40.5 -259q0 -141 -34.5 -288.5t-94.5 -279t-144 -249t-179 -202t-203.5 -134t-214.5 -49.5q-127 0 -215.5 66t-129.5 177.5t-41 260.5zM240 457q0 -418 292 -418q122 0 250 105 t225 267.5t159.5 370t62.5 400.5q0 93 -15.5 166.5t-48.5 132t-91 90t-138 31.5q-122 0 -249.5 -105.5t-224.5 -268.5t-159.5 -370.5t-62.5 -400.5zM848 1958q0 43 27.5 69.5t70.5 26.5q44 0 71 -26.5t27 -69.5t-27 -70.5t-71 -27.5q-43 0 -70.5 27.5t-27.5 70.5zM1188 1958 q0 43 27.5 69.5t70.5 26.5t69.5 -26.5t26.5 -69.5t-26.5 -70.5t-69.5 -27.5t-70.5 27.5t-27.5 70.5z" />
<glyph unicode="&#xd7;" horiz-adv-x="878" d="M88 354l311 244l-202 252l82 68l204 -254l326 254l63 -76l-327 -254l194 -242l-84 -67l-194 241l-311 -241z" />
<glyph unicode="&#xd8;" horiz-adv-x="1304" d="M-53 -70l213 252q-54 123 -54 289q0 168 48.5 344t134.5 327t195 271t238 189t255 69q203 0 305 -162l191 226l47 -33l-209 -248q51 -117 51 -285q0 -141 -34.5 -288.5t-94.5 -279t-144 -249t-179 -202t-203.5 -134t-214.5 -49.5q-202 0 -304 162l-196 -231zM240 457 q0 -93 14 -164l944 1116q-68 193 -262 193q-122 0 -249.5 -105.5t-224.5 -268.5t-159.5 -370.5t-62.5 -400.5zM272 227q64 -188 260 -188q122 0 250 105t225 267.5t159.5 370t62.5 400.5q0 86 -15 159z" />
<glyph unicode="&#xd9;" horiz-adv-x="1402" d="M190 298.5q-4 100.5 35 219.5l289 932q34 91 12.5 118t-151.5 27l12 43h494l-13 -43q-117 0 -160 -27t-69 -118l-291 -942q-67 -211 -4.5 -338t244.5 -127q376 0 538 520l273 887q9 28 12.5 41.5t6.5 32t0.5 26t-10 18t-20.5 14t-34.5 7.5t-49 5t-67.5 1l14 43h430 l-10 -43q-96 0 -133 -27t-65 -118l-273 -895q-26 -86 -55 -156.5t-69 -139t-89.5 -119.5t-111 -90.5t-140 -60t-170.5 -20.5q-124 0 -209 41t-123.5 114.5t-42.5 174zM813 2152h145l181 -364h-49z" />
<glyph unicode="&#xda;" horiz-adv-x="1402" d="M190 298.5q-4 100.5 35 219.5l289 932q34 91 12.5 118t-151.5 27l12 43h494l-13 -43q-117 0 -160 -27t-69 -118l-291 -942q-67 -211 -4.5 -338t244.5 -127q376 0 538 520l273 887q9 28 12.5 41.5t6.5 32t0.5 26t-10 18t-20.5 14t-34.5 7.5t-49 5t-67.5 1l14 43h430 l-10 -43q-96 0 -133 -27t-65 -118l-273 -895q-26 -86 -55 -156.5t-69 -139t-89.5 -119.5t-111 -90.5t-140 -60t-170.5 -20.5q-124 0 -209 41t-123.5 114.5t-42.5 174zM1098 1788l241 364h146l-338 -364h-49z" />
<glyph unicode="&#xdb;" horiz-adv-x="1402" d="M190 298.5q-4 100.5 35 219.5l289 932q34 91 12.5 118t-151.5 27l12 43h494l-13 -43q-117 0 -160 -27t-69 -118l-291 -942q-67 -211 -4.5 -338t244.5 -127q376 0 538 520l273 887q9 28 12.5 41.5t6.5 32t0.5 26t-10 18t-20.5 14t-34.5 7.5t-49 5t-67.5 1l14 43h430 l-10 -43q-96 0 -133 -27t-65 -118l-273 -895q-26 -86 -55 -156.5t-69 -139t-89.5 -119.5t-111 -90.5t-140 -60t-170.5 -20.5q-124 0 -209 41t-123.5 114.5t-42.5 174zM844 1788l291 364h143l61 -364h-47l-108 287l-291 -287h-49z" />
<glyph unicode="&#xdc;" horiz-adv-x="1402" d="M190 298.5q-4 100.5 35 219.5l289 932q34 91 12.5 118t-151.5 27l12 43h494l-13 -43q-117 0 -160 -27t-69 -118l-291 -942q-67 -211 -4.5 -338t244.5 -127q376 0 538 520l273 887q9 28 12.5 41.5t6.5 32t0.5 26t-10 18t-20.5 14t-34.5 7.5t-49 5t-67.5 1l14 43h430 l-10 -43q-96 0 -133 -27t-65 -118l-273 -895q-26 -86 -55 -156.5t-69 -139t-89.5 -119.5t-111 -90.5t-140 -60t-170.5 -20.5q-124 0 -209 41t-123.5 114.5t-42.5 174zM893 1958q0 43 27.5 69.5t70.5 26.5q44 0 71.5 -26.5t27.5 -69.5t-27.5 -70.5t-71.5 -27.5 q-43 0 -70.5 27.5t-27.5 70.5zM1233 1958q0 43 27.5 69.5t70.5 26.5t69.5 -26.5t26.5 -69.5t-26.5 -70.5t-69.5 -27.5t-70.5 27.5t-27.5 70.5z" />
<glyph unicode="&#xdd;" horiz-adv-x="1228" d="M217 0l12 43q117 0 160.5 27t71.5 118l164 533l-133 725q-17 93 -49.5 121t-118.5 28l12 43h455l-15 -43q-45 0 -73.5 -2t-48.5 -9.5t-29.5 -16.5t-12.5 -28.5t-1.5 -38.5t7.5 -54l109 -627h10l492 662q5 7 15 20q27 37 35 50.5t-1.5 26.5t-43.5 15t-108 2l15 43h424 l-13 -43q-77 0 -129 -21.5t-106 -92.5l-569 -758l-164 -535q-9 -29 -12.5 -41.5t-6.5 -31.5t-1 -26.5t9 -18t19.5 -14t33 -7.5t47 -5t64.5 -1l-14 -43h-506zM995 1788l242 364h145l-338 -364h-49z" />
<glyph unicode="&#xde;" horiz-adv-x="1118" d="M-100 0l14 43q116 0 158.5 27t70.5 118l387 1262q34 91 12.5 118t-153.5 27l12 43h494l-12 -43q-115 0 -157.5 -27t-70.5 -118l-49 -162q79 35 191 35q82 0 151 -20t122 -60t82.5 -106t29.5 -152q0 -82 -25.5 -164.5t-78 -157.5t-124.5 -133t-172 -92.5t-213 -34.5 q-132 0 -223 39l-78 -254q-34 -91 -12 -118t154 -27l-15 -43h-495zM369 516q79 -39 192 -39q96 0 178.5 32.5t139.5 85.5t97.5 121.5t59.5 140t19 140.5q0 130 -71 193t-200 63q-169 0 -225 -116z" />
<glyph unicode="&#xdf;" horiz-adv-x="1028" d="M-483 -387q0 38 30.5 64t73.5 26q29 0 76 -22.5t78 -22.5q89 0 150.5 108.5t150.5 397.5l260 858h-176l16 55h176l35 117q32 106 75.5 191t102 152.5t137 104.5t170.5 37q106 0 170 -57t64 -143q0 -27 -6.5 -53t-14.5 -46.5t-26.5 -46.5t-32 -42t-43 -44.5t-46 -43 t-55 -48t-57.5 -49.5q-111 -100 -141.5 -139t-30.5 -82q0 -26 20.5 -60.5t41 -57.5t55.5 -60q74 -81 115 -157t41 -167q0 -69 -29 -141t-79 -132t-127 -98.5t-165 -38.5q-109 0 -219 64l101 328l43 -3q-35 -109 -35 -182q0 -137 121 -137q83 0 148.5 50.5t97.5 123t32 148.5 q0 81 -33.5 144t-99.5 136q-77 86 -98 122q-25 42 -25 77q0 67 41 122t164 171q50 47 77 74t61.5 65.5t51.5 67.5t29 65t12 72q0 62 -33.5 95.5t-97.5 33.5q-116 0 -205 -100.5t-153 -317.5l-309 -1018q-41 -134 -96 -244t-125.5 -197.5t-161 -135.5t-191.5 -48 q-61 0 -83.5 17t-22.5 47z" />
<glyph unicode="&#xe0;" horiz-adv-x="1007" d="M12 219q0 128 56 285.5t140.5 289t194 221t207.5 89.5q89 0 132.5 -60t35.5 -163h6l62 170q33 0 62.5 17t47.5 44l23 -10l-322 -883q-2 -7 -8 -24.5t-10 -28.5t-7 -25.5t-3 -23.5q0 -51 41 -51q59 0 123.5 83t124.5 213h43q-39 -95 -89.5 -176t-119 -139.5t-134.5 -58.5 q-108 0 -108 106q0 13 4 30t8 29t13 35.5t12 32.5l117 322h-19q-41 -89 -94 -180.5t-117.5 -180t-134.5 -144.5t-129 -56q-158 0 -158 237zM133 233q0 -153 72 -153q64 0 159.5 100.5t177.5 236t124 251.5q47 125 47 217q0 143 -101 143t-215 -132t-189 -320t-75 -343z M428 1642h145l181 -364h-49z" />
<glyph unicode="&#xe1;" horiz-adv-x="1007" d="M12 219q0 128 56 285.5t140.5 289t194 221t207.5 89.5q89 0 132.5 -60t35.5 -163h6l62 170q33 0 62.5 17t47.5 44l23 -10l-322 -883q-2 -7 -8 -24.5t-10 -28.5t-7 -25.5t-3 -23.5q0 -51 41 -51q59 0 123.5 83t124.5 213h43q-39 -95 -89.5 -176t-119 -139.5t-134.5 -58.5 q-108 0 -108 106q0 13 4 30t8 29t13 35.5t12 32.5l117 322h-19q-41 -89 -94 -180.5t-117.5 -180t-134.5 -144.5t-129 -56q-158 0 -158 237zM133 233q0 -153 72 -153q64 0 159.5 100.5t177.5 236t124 251.5q47 125 47 217q0 143 -101 143t-215 -132t-189 -320t-75 -343z M713 1278l241 364h146l-338 -364h-49z" />
<glyph unicode="&#xe2;" horiz-adv-x="1007" d="M12 219q0 128 56 285.5t140.5 289t194 221t207.5 89.5q89 0 132.5 -60t35.5 -163h6l62 170q33 0 62.5 17t47.5 44l23 -10l-322 -883q-2 -7 -8 -24.5t-10 -28.5t-7 -25.5t-3 -23.5q0 -51 41 -51q59 0 123.5 83t124.5 213h43q-39 -95 -89.5 -176t-119 -139.5t-134.5 -58.5 q-108 0 -108 106q0 13 4 30t8 29t13 35.5t12 32.5l117 322h-19q-41 -89 -94 -180.5t-117.5 -180t-134.5 -144.5t-129 -56q-158 0 -158 237zM133 233q0 -153 72 -153q64 0 159.5 100.5t177.5 236t124 251.5q47 125 47 217q0 143 -101 143t-215 -132t-189 -320t-75 -343z M459 1278l291 364h143l61 -364h-47l-108 287l-291 -287h-49z" />
<glyph unicode="&#xe3;" horiz-adv-x="1007" d="M12 219q0 128 56 285.5t140.5 289t194 221t207.5 89.5q89 0 132.5 -60t35.5 -163h6l62 170q33 0 62.5 17t47.5 44l23 -10l-322 -883q-2 -7 -8 -24.5t-10 -28.5t-7 -25.5t-3 -23.5q0 -51 41 -51q59 0 123.5 83t124.5 213h43q-39 -95 -89.5 -176t-119 -139.5t-134.5 -58.5 q-108 0 -108 106q0 13 4 30t8 29t13 35.5t12 32.5l117 322h-19q-41 -89 -94 -180.5t-117.5 -180t-134.5 -144.5t-129 -56q-158 0 -158 237zM133 233q0 -153 72 -153q64 0 159.5 100.5t177.5 236t124 251.5q47 125 47 217q0 143 -101 143t-215 -132t-189 -320t-75 -343z M438 1331q39 111 89 171.5t122 60.5q35 0 64 -14t49 -34.5t39 -41t43 -34.5t51 -14q51 0 84.5 36.5t60.5 107.5l41 -4q-77 -230 -211 -230q-35 0 -64 14t-49 33.5t-38.5 39.5t-42.5 34t-51 14q-50 0 -83.5 -36.5t-60.5 -106.5z" />
<glyph unicode="&#xe4;" horiz-adv-x="1007" d="M12 219q0 128 56 285.5t140.5 289t194 221t207.5 89.5q89 0 132.5 -60t35.5 -163h6l62 170q33 0 62.5 17t47.5 44l23 -10l-322 -883q-2 -7 -8 -24.5t-10 -28.5t-7 -25.5t-3 -23.5q0 -51 41 -51q59 0 123.5 83t124.5 213h43q-39 -95 -89.5 -176t-119 -139.5t-134.5 -58.5 q-108 0 -108 106q0 13 4 30t8 29t13 35.5t12 32.5l117 322h-19q-41 -89 -94 -180.5t-117.5 -180t-134.5 -144.5t-129 -56q-158 0 -158 237zM133 233q0 -153 72 -153q64 0 159.5 100.5t177.5 236t124 251.5q47 125 47 217q0 143 -101 143t-215 -132t-189 -320t-75 -343z M508 1448q0 43 27.5 69.5t70.5 26.5q44 0 71.5 -26.5t27.5 -69.5t-27.5 -70.5t-71.5 -27.5q-43 0 -70.5 27.5t-27.5 70.5zM848 1448q0 43 27.5 69.5t70.5 26.5t69.5 -26.5t26.5 -69.5t-26.5 -70.5t-69.5 -27.5t-70.5 27.5t-27.5 70.5z" />
<glyph unicode="&#xe5;" horiz-adv-x="1007" d="M12 219q0 128 56 285.5t140.5 289t194 221t207.5 89.5q89 0 132.5 -60t35.5 -163h6l62 170q33 0 62.5 17t47.5 44l23 -10l-322 -883q-2 -7 -8 -24.5t-10 -28.5t-7 -25.5t-3 -23.5q0 -51 41 -51q59 0 123.5 83t124.5 213h43q-39 -95 -89.5 -176t-119 -139.5t-134.5 -58.5 q-108 0 -108 106q0 13 4 30t8 29t13 35.5t12 32.5l117 322h-19q-41 -89 -94 -180.5t-117.5 -180t-134.5 -144.5t-129 -56q-158 0 -158 237zM133 233q0 -153 72 -153q64 0 159.5 100.5t177.5 236t124 251.5q47 125 47 217q0 143 -101 143t-215 -132t-189 -320t-75 -343z M575 1440q0 88 75 164.5t173 76.5q66 0 106 -39t40 -100q0 -89 -74.5 -167.5t-173.5 -78.5q-67 0 -106.5 41t-39.5 103zM645 1444q0 -38 21 -63t65 -25q74 0 121 62.5t47 121.5q0 37 -20.5 59.5t-65.5 22.5q-75 0 -121.5 -58t-46.5 -120z" />
<glyph unicode="&#xe6;" horiz-adv-x="1230" d="M-33 147q0 65 34.5 123.5t89.5 102t133 81.5t155.5 64t165.5 47q82 213 82 328q0 151 -111 151q-77 0 -149 -62t-72 -161q0 -16 2 -41.5t2 -34.5q0 -35 -17 -53t-46 -18q-33 0 -51.5 20.5t-18.5 59.5q0 76 57 159.5t145.5 139t172.5 55.5q54 0 92.5 -22t57.5 -59.5 t27 -77t7 -85.5h4q80 110 171.5 175t178.5 65q74 0 114 -44t40 -112q0 -74 -48.5 -142.5t-129.5 -120t-179 -89.5t-204 -59q-45 -146 -45 -261q0 -95 36.5 -152.5t104.5 -57.5q89 0 181.5 99t170.5 265h39q-79 -207 -195.5 -332t-244.5 -125q-103 0 -158 76.5t-55 204.5 q0 73 14 139h-8q-31 -89 -65 -158.5t-79 -131.5t-103 -96t-124 -34q-76 0 -125 45t-49 129zM86 168q0 -50 23.5 -75t64.5 -25q170 0 352 450q-189 -47 -314.5 -140t-125.5 -210zM686 584q83 25 159.5 60t144 80t107.5 102.5t40 117.5q0 94 -84 94q-102 0 -202.5 -133.5 t-164.5 -320.5z" />
<glyph unicode="&#xe7;" horiz-adv-x="733" d="M-74 -453l21 43q18 -2 61 -2q124 0 191 53t67 121q0 93 -129 93l56 125q-76 20 -118 97.5t-42 196.5q0 181 80.5 376t210.5 326.5t260 131.5q68 0 110.5 -43t42.5 -119q0 -83 -39.5 -154t-89.5 -71q-25 0 -40 17.5t-15 43.5q0 25 17.5 46t38 34.5t38 40t17.5 62.5 q0 32 -21 53.5t-68 21.5q-82 0 -161.5 -75.5t-134.5 -188.5t-89 -242.5t-34 -238.5q0 -105 32 -167t97 -62q84 0 173 91.5t163 241.5h38q-82 -198 -188.5 -310t-218.5 -116l-33 -73q66 -3 109 -38.5t43 -97.5q0 -91 -91.5 -158t-244.5 -67q-35 0 -109 8z" />
<glyph unicode="&#xe8;" horiz-adv-x="753" d="M23 252q0 122 49 271.5t126 278t182.5 215.5t207.5 87q71 0 113 -44.5t42 -117.5q0 -104 -81 -208t-212.5 -178t-275.5 -97q-29 -119 -29 -203q0 -92 39 -142.5t105 -50.5q93 0 183.5 99t168.5 268h41q-81 -208 -196.5 -332.5t-245.5 -124.5q-101 0 -159 74.5t-58 204.5z M188 516q188 42 321.5 160.5t133.5 265.5q0 98 -74 98q-75 0 -152 -80t-134 -196t-95 -248zM362 1642h146l180 -364h-49z" />
<glyph unicode="&#xe9;" horiz-adv-x="753" d="M23 252q0 122 49 271.5t126 278t182.5 215.5t207.5 87q71 0 113 -44.5t42 -117.5q0 -104 -81 -208t-212.5 -178t-275.5 -97q-29 -119 -29 -203q0 -92 39 -142.5t105 -50.5q93 0 183.5 99t168.5 268h41q-81 -208 -196.5 -332.5t-245.5 -124.5q-101 0 -159 74.5t-58 204.5z M188 516q188 42 321.5 160.5t133.5 265.5q0 98 -74 98q-75 0 -152 -80t-134 -196t-95 -248zM649 1278l242 364h145l-338 -364h-49z" />
<glyph unicode="&#xea;" horiz-adv-x="753" d="M23 252q0 122 49 271.5t126 278t182.5 215.5t207.5 87q71 0 113 -44.5t42 -117.5q0 -104 -81 -208t-212.5 -178t-275.5 -97q-29 -119 -29 -203q0 -92 39 -142.5t105 -50.5q93 0 183.5 99t168.5 268h41q-81 -208 -196.5 -332.5t-245.5 -124.5q-101 0 -159 74.5t-58 204.5z M188 516q188 42 321.5 160.5t133.5 265.5q0 98 -74 98q-75 0 -152 -80t-134 -196t-95 -248zM395 1278l291 364h143l62 -364h-47l-109 287l-291 -287h-49z" />
<glyph unicode="&#xeb;" horiz-adv-x="753" d="M23 252q0 122 49 271.5t126 278t182.5 215.5t207.5 87q71 0 113 -44.5t42 -117.5q0 -104 -81 -208t-212.5 -178t-275.5 -97q-29 -119 -29 -203q0 -92 39 -142.5t105 -50.5q93 0 183.5 99t168.5 268h41q-81 -208 -196.5 -332.5t-245.5 -124.5q-101 0 -159 74.5t-58 204.5z M188 516q188 42 321.5 160.5t133.5 265.5q0 98 -74 98q-75 0 -152 -80t-134 -196t-95 -248zM444 1448q0 42 28 69t71 27q44 0 71 -26.5t27 -69.5t-27 -70.5t-71 -27.5q-43 0 -71 27.5t-28 70.5zM784 1448q0 42 28 69t71 27t69.5 -26.5t26.5 -69.5t-26.5 -70.5t-69.5 -27.5 t-71 27.5t-28 70.5z" />
<glyph unicode="&#xec;" horiz-adv-x="585" d="M61 768q71 136 167 234t186 98q38 0 59 -26.5t21 -65.5q0 -59 -43 -170l-218 -619q-26 -81 -26 -102q0 -51 41 -51q59 0 124.5 83.5t123.5 212.5h43q-29 -70 -65 -133.5t-79.5 -119t-94.5 -88.5t-101 -33q-109 0 -109 106q0 34 33 127l215 619q41 125 41 145q0 39 -31 39 q-49 0 -117 -76t-127 -180h-43zM193 1642h145l180 -364h-49z" />
<glyph unicode="&#xed;" horiz-adv-x="585" d="M61 768q71 136 167 234t186 98q38 0 59 -26.5t21 -65.5q0 -59 -43 -170l-218 -619q-26 -81 -26 -102q0 -51 41 -51q59 0 124.5 83.5t123.5 212.5h43q-29 -70 -65 -133.5t-79.5 -119t-94.5 -88.5t-101 -33q-109 0 -109 106q0 34 33 127l215 619q41 125 41 145q0 39 -31 39 q-49 0 -117 -76t-127 -180h-43zM477 1278l242 364h145l-338 -364h-49z" />
<glyph unicode="&#xee;" horiz-adv-x="585" d="M61 768q71 136 167 234t186 98q38 0 59 -26.5t21 -65.5q0 -59 -43 -170l-218 -619q-26 -81 -26 -102q0 -51 41 -51q59 0 124.5 83.5t123.5 212.5h43q-29 -70 -65 -133.5t-79.5 -119t-94.5 -88.5t-101 -33q-109 0 -109 106q0 34 33 127l215 619q41 125 41 145q0 39 -31 39 q-49 0 -117 -76t-127 -180h-43zM223 1278l291 364h143l62 -364h-47l-109 287l-291 -287h-49z" />
<glyph unicode="&#xef;" horiz-adv-x="585" d="M61 768q71 136 167 234t186 98q38 0 59 -26.5t21 -65.5q0 -59 -43 -170l-218 -619q-26 -81 -26 -102q0 -51 41 -51q59 0 124.5 83.5t123.5 212.5h43q-29 -70 -65 -133.5t-79.5 -119t-94.5 -88.5t-101 -33q-109 0 -109 106q0 34 33 127l215 619q41 125 41 145q0 39 -31 39 q-49 0 -117 -76t-127 -180h-43zM272 1448q0 42 28 69t71 27q44 0 71 -26.5t27 -69.5t-27 -70.5t-71 -27.5q-43 0 -71 27.5t-28 70.5zM612 1448q0 42 28 69t71 27t69.5 -26.5t26.5 -69.5t-26.5 -70.5t-69.5 -27.5t-71 27.5t-28 70.5z" />
<glyph unicode="&#xf0;" horiz-adv-x="907" d="M49 295q0 131 45 273.5t119.5 260.5t180 194.5t216.5 76.5q103 0 154 -64q-14 176 -82 318l-250 -135l-22 41l249 135q-74 131 -223 245l35 39q161 -105 260 -245l268 145l23 -41l-266 -143q137 -215 137 -494q0 -121 -29.5 -253t-85 -252.5t-127 -217t-163.5 -154 t-187 -57.5q-120 0 -186 89t-66 239zM170 285q0 -114 38 -181t120 -67q84 0 167.5 88.5t142.5 219.5t95.5 282t36.5 276v17q-37 104 -152 104q-74 0 -144.5 -47t-124 -125t-95 -174t-63 -198.5t-21.5 -194.5z" />
<glyph unicode="&#xf1;" horiz-adv-x="1038" d="M49 0l289 840q41 121 41 145q0 39 -31 39q-49 0 -117 -76t-127 -180h-43q71 136 167 234t186 98q38 0 59 -26.5t21 -65.5q0 -42 -45 -168l-136 -373h17q162 342 287.5 489.5t232.5 147.5q56 0 86.5 -34t30.5 -93q0 -76 -39.5 -189.5t-130 -315t-111.5 -253.5 q-2 -6 -11 -31.5t-13.5 -42t-4.5 -28.5q0 -51 41 -51q59 0 124.5 83.5t123.5 212.5h43q-29 -70 -65 -133.5t-79.5 -119t-94.5 -88.5t-101 -33q-108 0 -108 106q0 34 37 127q32 82 112 272.5t115 290.5t35 150q0 76 -49 76q-30 0 -72.5 -30.5t-102.5 -106t-127 -187 t-151.5 -289t-171.5 -397.5h-117zM436 1331q39 111 89 171.5t122 60.5q35 0 64 -14t49 -34.5t39 -41t43 -34.5t51 -14q51 0 84.5 36.5t60.5 107.5l41 -4q-77 -230 -211 -230q-35 0 -64 14t-49 33.5t-38.5 39.5t-42.5 34t-51 14q-50 0 -83.5 -36.5t-60.5 -106.5z" />
<glyph unicode="&#xf2;" horiz-adv-x="882" d="M37 285q0 142 51 291.5t130 265.5t183 190t203 74q113 0 177.5 -87.5t64.5 -232.5q0 -141 -51.5 -289.5t-131.5 -263t-184.5 -187.5t-204.5 -73q-113 0 -175 84t-62 228zM156 281q0 -238 151 -238q69 0 145 69t136 175.5t99.5 243t39.5 262.5q0 112 -38.5 177.5 t-117.5 65.5q-69 0 -144 -70t-134.5 -177.5t-98 -245t-38.5 -262.5zM401 1642h146l180 -364h-49z" />
<glyph unicode="&#xf3;" horiz-adv-x="882" d="M37 285q0 142 51 291.5t130 265.5t183 190t203 74q113 0 177.5 -87.5t64.5 -232.5q0 -141 -51.5 -289.5t-131.5 -263t-184.5 -187.5t-204.5 -73q-113 0 -175 84t-62 228zM156 281q0 -238 151 -238q69 0 145 69t136 175.5t99.5 243t39.5 262.5q0 112 -38.5 177.5 t-117.5 65.5q-69 0 -144 -70t-134.5 -177.5t-98 -245t-38.5 -262.5zM688 1278l242 364h145l-338 -364h-49z" />
<glyph unicode="&#xf4;" horiz-adv-x="882" d="M37 285q0 142 51 291.5t130 265.5t183 190t203 74q113 0 177.5 -87.5t64.5 -232.5q0 -141 -51.5 -289.5t-131.5 -263t-184.5 -187.5t-204.5 -73q-113 0 -175 84t-62 228zM156 281q0 -238 151 -238q69 0 145 69t136 175.5t99.5 243t39.5 262.5q0 112 -38.5 177.5 t-117.5 65.5q-69 0 -144 -70t-134.5 -177.5t-98 -245t-38.5 -262.5zM432 1278l291 364h143l62 -364h-47l-109 287l-291 -287h-49z" />
<glyph unicode="&#xf5;" horiz-adv-x="882" d="M37 285q0 142 51 291.5t130 265.5t183 190t203 74q113 0 177.5 -87.5t64.5 -232.5q0 -141 -51.5 -289.5t-131.5 -263t-184.5 -187.5t-204.5 -73q-113 0 -175 84t-62 228zM156 281q0 -238 151 -238q69 0 145 69t136 175.5t99.5 243t39.5 262.5q0 112 -38.5 177.5 t-117.5 65.5q-69 0 -144 -70t-134.5 -177.5t-98 -245t-38.5 -262.5zM412 1331q39 111 89 171.5t122 60.5q35 0 64 -14t49 -34.5t38.5 -41t42.5 -34.5t51 -14q51 0 85 37t61 107l41 -4q-77 -230 -211 -230q-35 0 -64 14t-49 33.5t-39 39.5t-43 34t-51 14q-49 0 -82.5 -36.5 t-60.5 -106.5z" />
<glyph unicode="&#xf6;" horiz-adv-x="882" d="M37 285q0 142 51 291.5t130 265.5t183 190t203 74q113 0 177.5 -87.5t64.5 -232.5q0 -141 -51.5 -289.5t-131.5 -263t-184.5 -187.5t-204.5 -73q-113 0 -175 84t-62 228zM156 281q0 -238 151 -238q69 0 145 69t136 175.5t99.5 243t39.5 262.5q0 112 -38.5 177.5 t-117.5 65.5q-69 0 -144 -70t-134.5 -177.5t-98 -245t-38.5 -262.5zM481 1448q0 42 28 69t71 27q44 0 71 -26.5t27 -69.5t-27 -70.5t-71 -27.5q-43 0 -71 27.5t-28 70.5zM821 1448q0 42 28 69t71 27t69.5 -26.5t26.5 -69.5t-26.5 -70.5t-69.5 -27.5t-71 27.5t-28 70.5z" />
<glyph unicode="&#xf7;" horiz-adv-x="942" d="M111 561l30 103h758l-31 -103h-757zM324 262q0 39 30.5 69.5t67.5 30.5q29 0 46 -17t17 -44q0 -38 -29.5 -68t-66.5 -30q-28 0 -46.5 16.5t-18.5 42.5zM528 928q0 40 30 70t69 30q29 0 46 -17t17 -44q0 -38 -30 -68.5t-68 -30.5q-28 0 -46 17t-18 43z" />
<glyph unicode="&#xf8;" horiz-adv-x="905" d="M-94 -66l174 201q-23 71 -23 150q0 142 51 291.5t131 265.5t184 190t204 74q132 0 196 -119l156 180l37 -28l-172 -199q22 -71 22 -154q0 -189 -84.5 -379.5t-218.5 -312t-268 -121.5q-132 0 -193 113l-157 -182zM176 246l563 645q-30 145 -147 145q-68 0 -143 -70 t-135 -177.5t-99 -245t-39 -262.5v-35zM186 182q12 -66 48.5 -102.5t95.5 -36.5q68 0 143.5 69t135.5 175.5t99.5 243t39.5 262.5q0 19 -3 34z" />
<glyph unicode="&#xf9;" horiz-adv-x="1046" d="M55 98q0 57 31.5 156t64.5 176.5t97.5 218.5t87.5 195q4 11 14 39.5t15 43t9.5 33t4.5 27.5q0 39 -31 39q-49 0 -117 -76t-127 -180h-43q71 136 167 234t186 98q38 0 59 -27t21 -67q0 -44 -50 -168q-31 -77 -87 -206.5t-88 -206.5t-60 -159.5t-31 -126.5q-6 -75 45 -75 q70 0 166.5 100.5t208.5 300.5q91 164 164 334t80 276h149l-301 -874q-26 -75 -26 -103q0 -25 9 -37t32 -12q59 0 123 82t124 213h43q-28 -70 -64.5 -133.5t-80.5 -119.5t-95 -89t-100 -33q-108 0 -108 109q0 27 35 125l145 399h-16q-173 -336 -302.5 -483.5t-234.5 -147.5 q-56 0 -87.5 33.5t-31.5 91.5zM420 1642h145l180 -364h-49z" />
<glyph unicode="&#xfa;" horiz-adv-x="1046" d="M55 98q0 57 31.5 156t64.5 176.5t97.5 218.5t87.5 195q4 11 14 39.5t15 43t9.5 33t4.5 27.5q0 39 -31 39q-49 0 -117 -76t-127 -180h-43q71 136 167 234t186 98q38 0 59 -27t21 -67q0 -44 -50 -168q-31 -77 -87 -206.5t-88 -206.5t-60 -159.5t-31 -126.5q-6 -75 45 -75 q70 0 166.5 100.5t208.5 300.5q91 164 164 334t80 276h149l-301 -874q-26 -75 -26 -103q0 -25 9 -37t32 -12q59 0 123 82t124 213h43q-28 -70 -64.5 -133.5t-80.5 -119.5t-95 -89t-100 -33q-108 0 -108 109q0 27 35 125l145 399h-16q-173 -336 -302.5 -483.5t-234.5 -147.5 q-56 0 -87.5 33.5t-31.5 91.5zM707 1278l241 364h146l-338 -364h-49z" />
<glyph unicode="&#xfb;" horiz-adv-x="1046" d="M55 98q0 57 31.5 156t64.5 176.5t97.5 218.5t87.5 195q4 11 14 39.5t15 43t9.5 33t4.5 27.5q0 39 -31 39q-49 0 -117 -76t-127 -180h-43q71 136 167 234t186 98q38 0 59 -27t21 -67q0 -44 -50 -168q-31 -77 -87 -206.5t-88 -206.5t-60 -159.5t-31 -126.5q-6 -75 45 -75 q70 0 166.5 100.5t208.5 300.5q91 164 164 334t80 276h149l-301 -874q-26 -75 -26 -103q0 -25 9 -37t32 -12q59 0 123 82t124 213h43q-28 -70 -64.5 -133.5t-80.5 -119.5t-95 -89t-100 -33q-108 0 -108 109q0 27 35 125l145 399h-16q-173 -336 -302.5 -483.5t-234.5 -147.5 q-56 0 -87.5 33.5t-31.5 91.5zM451 1278l290 364h144l61 -364h-47l-108 287l-291 -287h-49z" />
<glyph unicode="&#xfc;" horiz-adv-x="1046" d="M55 98q0 57 31.5 156t64.5 176.5t97.5 218.5t87.5 195q4 11 14 39.5t15 43t9.5 33t4.5 27.5q0 39 -31 39q-49 0 -117 -76t-127 -180h-43q71 136 167 234t186 98q38 0 59 -27t21 -67q0 -44 -50 -168q-31 -77 -87 -206.5t-88 -206.5t-60 -159.5t-31 -126.5q-6 -75 45 -75 q70 0 166.5 100.5t208.5 300.5q91 164 164 334t80 276h149l-301 -874q-26 -75 -26 -103q0 -25 9 -37t32 -12q59 0 123 82t124 213h43q-28 -70 -64.5 -133.5t-80.5 -119.5t-95 -89t-100 -33q-108 0 -108 109q0 27 35 125l145 399h-16q-173 -336 -302.5 -483.5t-234.5 -147.5 q-56 0 -87.5 33.5t-31.5 91.5zM500 1448q0 43 27.5 69.5t70.5 26.5q44 0 71 -26.5t27 -69.5t-27 -70.5t-71 -27.5q-43 0 -70.5 27.5t-27.5 70.5zM840 1448q0 43 27.5 69.5t70.5 26.5t69.5 -26.5t26.5 -69.5t-26.5 -70.5t-69.5 -27.5t-70.5 27.5t-27.5 70.5z" />
<glyph unicode="&#xfd;" horiz-adv-x="884" d="M-233 -406q0 38 29.5 65.5t70.5 27.5q34 0 75.5 -20.5t71.5 -20.5q107 0 287 264q48 521 43 924q0 73 -5 112t-15 52.5t-29 13.5q-35 0 -81.5 -74t-94.5 -197h-41q131 357 260 357q65 0 91 -57.5t28 -198.5q0 -375 -45 -807q183 237 276.5 442t93.5 352q0 59 -26.5 127.5 t-26.5 90.5q0 24 15 41.5t42 17.5q84 0 84 -195q0 -315 -350 -815q-74 -107 -131.5 -182t-127.5 -152.5t-131.5 -124.5t-132 -76.5t-140.5 -29.5q-44 0 -67 17.5t-23 45.5zM571 1278l242 364h145l-337 -364h-50z" />
<glyph unicode="&#xfe;" horiz-adv-x="960" d="M-215 -477l12 43q70 0 108 28t66 115l377 1198q-57 -103 -138.5 -199t-172.5 -155l-23 33q138 93 250.5 257t161.5 312v-2l168 535h115l-349 -1053h15q41 92 84.5 169.5t95 148t109.5 111t114 40.5q71 0 114.5 -66t43.5 -190q0 -82 -19 -178t-52.5 -192t-83.5 -185 t-108.5 -158t-132 -110t-149.5 -41q-59 0 -107.5 29t-76.5 81l-121 -385q-31 -91 -8 -117t143 -26l-18 -43h-418zM256 248q0 -89 36 -144t95 -55q86 0 167.5 80.5t137 199.5t89.5 253t34 243q0 181 -86 181q-67 0 -160.5 -118t-169.5 -270t-116 -282z" />
<glyph unicode="&#xff;" horiz-adv-x="884" d="M-233 -406q0 38 29.5 65.5t70.5 27.5q34 0 75.5 -20.5t71.5 -20.5q107 0 287 264q48 521 43 924q0 73 -5 112t-15 52.5t-29 13.5q-35 0 -81.5 -74t-94.5 -197h-41q131 357 260 357q65 0 91 -57.5t28 -198.5q0 -375 -45 -807q183 237 276.5 442t93.5 352q0 59 -26.5 127.5 t-26.5 90.5q0 24 15 41.5t42 17.5q84 0 84 -195q0 -315 -350 -815q-74 -107 -131.5 -182t-127.5 -152.5t-131.5 -124.5t-132 -76.5t-140.5 -29.5q-44 0 -67 17.5t-23 45.5zM367 1448q0 43 27.5 69.5t70.5 26.5q44 0 71 -26.5t27 -69.5t-27 -70.5t-71 -27.5q-43 0 -70.5 27.5 t-27.5 70.5zM707 1448q0 43 27.5 69.5t70.5 26.5t69.5 -26.5t26.5 -69.5t-26.5 -70.5t-69.5 -27.5t-70.5 27.5t-27.5 70.5z" />
<glyph unicode="&#x152;" horiz-adv-x="1900" d="M111 479q0 165 43.5 334.5t128 321.5t198 271t264 189t314.5 70q54 0 154.5 -13.5t185.5 -13.5h643l-105 -348h-55q14 58 21 93t10 70t-3 53.5t-20.5 34t-40 21t-63.5 5.5h-313q-91 0 -117 -86l-180 -588h305q84 0 124.5 35t73.5 133h45l-129 -440h-45q31 113 12.5 160.5 t-100.5 47.5h-305l-194 -636q-22 -67 -11.5 -94t64.5 -27h352q115 0 188.5 62t172.5 235l57 -15l-197 -354h-678q-76 0 -194 -8t-166 -8q-120 0 -206.5 34.5t-137 101.5t-73.5 155t-23 204zM240 451q0 -96 16.5 -166t56.5 -125t112 -83t177 -28q40 0 72 5t66.5 18.5t59.5 43 t38 72.5l385 1262q25 77 -21.5 115.5t-148.5 38.5q-118 0 -228.5 -50t-198 -136t-161.5 -200t-122.5 -242t-75.5 -263t-27 -262z" />
<glyph unicode="&#x153;" horiz-adv-x="1337" d="M41 287q0 190 78 381.5t201 314t247 123.5q107 0 166.5 -79.5t65.5 -211.5q82 131 181.5 210t199.5 79q74 0 116.5 -48t42.5 -128q0 -101 -83.5 -202t-218 -173t-281.5 -94q-23 -108 -23 -183q0 -96 35.5 -154.5t103.5 -58.5q90 0 184.5 101t168.5 266h41 q-79 -204 -197.5 -330.5t-245.5 -126.5q-92 0 -144 66t-58 182q-77 -114 -170 -181t-183 -67q-108 0 -167.5 84t-59.5 230zM158 283q0 -240 153 -240q87 0 177 115t147 291t57 344q0 113 -35 178t-108 65q-92 0 -184 -116t-149.5 -292.5t-57.5 -344.5zM770 516 q126 26 231.5 84.5t171.5 145.5t66 182q0 54 -18 82t-62 28q-78 0 -157.5 -80t-137 -195.5t-94.5 -246.5z" />
<glyph unicode="&#x178;" horiz-adv-x="1228" d="M217 0l12 43q117 0 160.5 27t71.5 118l164 533l-133 725q-17 93 -49.5 121t-118.5 28l12 43h455l-15 -43q-45 0 -73.5 -2t-48.5 -9.5t-29.5 -16.5t-12.5 -28.5t-1.5 -38.5t7.5 -54l109 -627h10l492 662q5 7 15 20q27 37 35 50.5t-1.5 26.5t-43.5 15t-108 2l15 43h424 l-13 -43q-77 0 -129 -21.5t-106 -92.5l-569 -758l-164 -535q-9 -29 -12.5 -41.5t-6.5 -31.5t-1 -26.5t9 -18t19.5 -14t33 -7.5t47 -5t64.5 -1l-14 -43h-506zM791 1958q0 43 27.5 69.5t70.5 26.5q44 0 71 -26.5t27 -69.5t-27 -70.5t-71 -27.5q-43 0 -70.5 27.5t-27.5 70.5z M1130 1958q0 42 28 69t71 27t69.5 -26.5t26.5 -69.5t-26.5 -70.5t-69.5 -27.5t-71 27.5t-28 70.5z" />
<glyph unicode="&#x2c6;" horiz-adv-x="665" d="M287 1278l291 364h143l61 -364h-47l-108 287l-291 -287h-49z" />
<glyph unicode="&#x2dc;" horiz-adv-x="774" d="M322 1331q39 111 88.5 171.5t121.5 60.5q35 0 64 -14t49 -34.5t39 -41t43 -34.5t51 -14q51 0 85 37t61 107l41 -4q-77 -230 -211 -230q-35 0 -64 14t-49 33.5t-39 39.5t-43 34t-51 14q-49 0 -82.5 -36.5t-60.5 -106.5z" />
<glyph unicode="&#x2000;" horiz-adv-x="1095" />
<glyph unicode="&#x2001;" horiz-adv-x="2191" />
<glyph unicode="&#x2002;" horiz-adv-x="1095" />
<glyph unicode="&#x2003;" horiz-adv-x="2191" />
<glyph unicode="&#x2004;" horiz-adv-x="730" />
<glyph unicode="&#x2005;" horiz-adv-x="547" />
<glyph unicode="&#x2006;" horiz-adv-x="365" />
<glyph unicode="&#x2007;" horiz-adv-x="365" />
<glyph unicode="&#x2008;" horiz-adv-x="273" />
<glyph unicode="&#x2009;" horiz-adv-x="438" />
<glyph unicode="&#x200a;" horiz-adv-x="121" />
<glyph unicode="&#x2010;" horiz-adv-x="815" d="M92 502l31 102h631l-29 -102h-633z" />
<glyph unicode="&#x2011;" horiz-adv-x="815" d="M92 502l31 102h631l-29 -102h-633z" />
<glyph unicode="&#x2012;" horiz-adv-x="815" d="M92 502l31 102h631l-29 -102h-633z" />
<glyph unicode="&#x2013;" horiz-adv-x="1247" d="M12 502l33 102h1204l-32 -102h-1205z" />
<glyph unicode="&#x2014;" horiz-adv-x="2416" d="M-6 502l33 102h2408l-31 -102h-2410z" />
<glyph unicode="&#x2018;" horiz-adv-x="313" d="M297 1319q0 185 283 340l16 -37q-82 -46 -150.5 -116.5t-68.5 -131.5q0 -14 12 -14q4 0 26.5 13t45.5 13q29 0 47 -19.5t18 -53.5q0 -49 -35 -80t-85 -31q-47 0 -78 30.5t-31 86.5z" />
<glyph unicode="&#x2019;" horiz-adv-x="327" d="M262 1227q84 48 151.5 117.5t67.5 130.5q0 16 -10 16q-5 0 -28.5 -14.5t-45.5 -14.5q-27 0 -46 21t-19 55q0 47 35.5 79t85.5 32q47 0 77.5 -30.5t30.5 -86.5q0 -188 -280 -340z" />
<glyph unicode="&#x201a;" horiz-adv-x="391" d="M-156 -262q83 46 151 116.5t68 131.5q0 14 -10 14q-5 0 -28 -13.5t-45 -13.5q-28 0 -47 20t-19 54q0 49 35 80t86 31q47 0 77.5 -30.5t30.5 -86.5q0 -184 -280 -340z" />
<glyph unicode="&#x201c;" horiz-adv-x="636" d="M297 1319q0 185 283 340l16 -37q-82 -46 -150.5 -116.5t-68.5 -131.5q0 -14 12 -14q4 0 26.5 13t45.5 13q29 0 47 -19.5t18 -53.5q0 -49 -35 -80t-85 -31q-47 0 -78 30.5t-31 86.5zM621 1319q0 185 282 340l17 -37q-83 -47 -151.5 -117.5t-68.5 -130.5q0 -14 13 -14 q4 0 26 13t45 13q29 0 47.5 -19.5t18.5 -53.5q0 -48 -35 -79.5t-84 -31.5q-47 0 -78.5 30.5t-31.5 86.5z" />
<glyph unicode="&#x201d;" horiz-adv-x="651" d="M262 1227q84 48 151.5 117.5t67.5 130.5q0 16 -10 16q-5 0 -28.5 -14.5t-45.5 -14.5q-27 0 -46 21t-19 55q0 47 35.5 79t85.5 32q47 0 77.5 -30.5t30.5 -86.5q0 -188 -280 -340zM586 1227q84 48 151.5 117.5t67.5 130.5q0 16 -10 16q-5 0 -28.5 -14.5t-45.5 -14.5 q-27 0 -46.5 21t-19.5 55q0 47 35.5 79t85.5 32q47 0 78 -30.5t31 -86.5q0 -187 -281 -340z" />
<glyph unicode="&#x201e;" horiz-adv-x="714" d="M-156 -262q83 46 151 116.5t68 131.5q0 14 -10 14q-5 0 -28 -13.5t-45 -13.5q-28 0 -47 20t-19 54q0 49 35 80t86 31q47 0 77.5 -30.5t30.5 -86.5q0 -184 -280 -340zM170 -262q82 46 149.5 116.5t67.5 131.5q0 14 -10 14q-5 0 -28 -13.5t-44 -13.5q-29 0 -48 20t-19 54 q0 48 35.5 79.5t84.5 31.5q47 0 79 -30.5t32 -86.5q0 -183 -283 -340z" />
<glyph unicode="&#x2022;" horiz-adv-x="593" d="M141 702q0 113 84.5 198t194.5 85q81 0 129.5 -47.5t48.5 -122.5q0 -109 -84 -196t-192 -87q-78 0 -129.5 49t-51.5 121z" />
<glyph unicode="&#x2026;" horiz-adv-x="1232" d="M-68 51q0 47 36.5 83t82.5 36q33 0 53.5 -20.5t20.5 -51.5q0 -46 -35.5 -82t-79.5 -36q-34 0 -56 20t-22 51zM373 51q0 47 35.5 83t80.5 36q35 0 55.5 -20.5t20.5 -51.5q0 -46 -35 -82t-81 -36q-32 0 -54 20t-22 51zM813 51q0 47 35.5 83t81.5 36q33 0 53.5 -20.5 t20.5 -51.5q0 -46 -35 -82t-80 -36q-32 0 -54 20t-22 51z" />
<glyph unicode="&#x202f;" horiz-adv-x="438" />
<glyph unicode="&#x2039;" horiz-adv-x="544" d="M115 600l454 494h45l-385 -494l119 -500h-39z" />
<glyph unicode="&#x203a;" horiz-adv-x="544" d="M-35 100l385 494l-119 500h41l193 -500l-455 -494h-45z" />
<glyph unicode="&#x205f;" horiz-adv-x="547" />
<glyph unicode="&#x20ac;" horiz-adv-x="1222" d="M111 702l41 64h108q21 71 39 127h-131l41 63h113q44 114 97.5 217t121.5 196.5t142.5 161.5t163.5 108t181 40q208 0 309 -147l-114 -381h-41q32 106 43 185t0 143t-56.5 97.5t-126.5 33.5q-92 0 -181 -54t-163 -149t-134.5 -207t-110.5 -244h491l-41 -63h-473 q-18 -56 -39 -127h434l-41 -64h-409q-49 -189 -49 -329q0 -158 57 -246t168 -88q159 0 298 145.5t243 403.5l45 2q-110 -298 -266 -463.5t-361 -165.5q-153 0 -232 112t-79 306q0 138 45 323h-133z" />
<glyph unicode="&#x2122;" horiz-adv-x="2115" d="M315 1372l109 266h780l-63 -266h-43q29 117 8 159t-113 42h-100q-55 0 -70 -51l-182 -596q-33 -91 -20 -118.5t108 -27.5l-10 -43h-363l9 43q84 0 118 28t62 118l184 600q6 20 -3.5 33.5t-31.5 13.5h-102q-94 0 -136 -36.5t-98 -164.5h-43zM1012 737l10 43q82 0 116 28 t62 118l162 524q33 91 22 118t-100 27l10 43h242l57 -766h6l527 766h231l-8 -43q-70 0 -101 -28t-57 -117l-149 -524q-32 -91 -16.5 -118.5t122.5 -27.5l-10 -43h-375l9 43q82 0 115.5 28t58.5 118l163 573h-6l-561 -803h-26l-66 803h-8l-174 -573q-33 -91 -21.5 -118.5 t103.5 -27.5l-11 -43h-327z" />
<glyph unicode="&#x25fc;" horiz-adv-x="1095" d="M0 0v1096h1096v-1096h-1096z" />
<glyph unicode="&#xfb01;" horiz-adv-x="1067" d="M-483 -387q0 38 30.5 64t73.5 26q29 0 76 -22.5t78 -22.5q89 0 150.5 108.5t150.5 397.5l260 860h-189l17 53h188l25 82q78 262 194 382t316 120q110 0 159.5 -25.5t49.5 -64.5q0 -29 -22 -54.5t-62 -25.5q-34 0 -72.5 25t-81.5 50t-88 25q-40 0 -74.5 -22t-58 -54 t-48.5 -89.5t-41 -105t-40 -124.5q-2 -8 -3.5 -13t-4 -12.5l-4.5 -13.5l-25 -80h399q56 0 103 35l22 -10l-286 -881q-23 -89 -23 -104q0 -51 41 -51q59 0 124.5 83.5t123.5 212.5h43q-38 -95 -88 -176t-118 -139.5t-134 -58.5q-109 0 -109 106q0 42 27 129l258 801h-399 l-256 -850q-41 -134 -96.5 -244.5t-127 -197t-162 -135t-190.5 -48.5q-61 0 -83.5 17t-22.5 47z" />
<glyph unicode="&#xfb02;" horiz-adv-x="1083" d="M-483 -387q0 38 30.5 64t73.5 26q29 0 76 -22.5t78 -22.5q89 0 150.5 108.5t150.5 397.5l260 860h-189l17 53h188l35 117q22 75 46.5 133.5t58 116t76 98.5t96 73t124 48t154.5 16q94 0 111 -45q43 7 98 62l25 -8l-453 -1467q-21 -81 -21 -104q0 -51 41 -51 q59 0 124.5 83.5t123.5 212.5h43q-38 -95 -88 -176t-118 -139.5t-134 -58.5q-108 0 -108 106q0 52 24 129l406 1317q-19 3 -99 32.5t-137 29.5q-20 0 -45 -7t-56 -23t-59.5 -50.5t-44.5 -81.5q-3 -12 -26.5 -103.5t-40.5 -144.5l-35 -115h236l-19 -53h-233l-258 -850 q-41 -134 -96.5 -244.5t-127 -197t-162 -135t-190.5 -48.5q-61 0 -83.5 17t-22.5 47z" />
<glyph unicode="&#xfb03;" horiz-adv-x="1591" d="M-483 -387q0 38 30.5 64t73.5 26q29 0 76 -22.5t78 -22.5q89 0 150.5 108.5t150.5 397.5l260 860h-191l17 53h188l21 66q19 65 36 113t41 101.5t48.5 91t57.5 73.5t71 58t86.5 35t105.5 13q111 0 111 -61q0 -31 -21.5 -53.5t-58.5 -22.5q-33 0 -87 29.5t-87 29.5 q-37 0 -64 -27t-47 -104q-9 -33 -33.5 -136.5t-44.5 -170.5l-10 -35h402l24 82q79 262 195 382t315 120q209 0 209 -90q0 -30 -21 -55t-61 -25q-34 0 -72.5 25t-81.5 50t-88 25q-40 0 -74 -21t-58 -53t-48 -86.5t-40 -103t-39 -121.5q-10 -33 -15 -49l-25 -80h398 q58 0 102 35l25 -10l-287 -881q-23 -71 -23 -104q0 -51 41 -51q59 0 124.5 83.5t123.5 212.5h43q-29 -70 -65 -133.5t-79.5 -119t-94.5 -88.5t-101 -33q-108 0 -108 106q0 45 26 129l256 801h-397l-256 -850q-41 -135 -95 -244.5t-124 -197t-160 -135.5t-192 -48 q-105 0 -105 64q0 38 31.5 64t73.5 26q27 0 72 -22.5t75 -22.5q88 0 150 110t149 396l260 860h-401l-258 -840q-41 -137 -97.5 -250t-129 -200.5t-163.5 -136t-192 -48.5q-102 0 -102 64z" />
</font>
</defs>
</svg>
