<?xml version="1.0" standalone="no"?>
<!DOCTYPE svg PUBLIC "-//W3C//DTD SVG 1.1//EN" "http://www.w3.org/Graphics/SVG/1.1/DTD/svg11.dtd" >
<svg xmlns="http://www.w3.org/2000/svg" xmlns:xlink="http://www.w3.org/1999/xlink" version="1.1">
<metadata></metadata>
<defs>
<font id="suisse_intlbold" horiz-adv-x="1388" >
<font-face units-per-em="2048" ascent="1536" descent="-512" />
<missing-glyph horiz-adv-x="440" />
<glyph horiz-adv-x="0" />
<glyph unicode="&#xd;" horiz-adv-x="681" />
<glyph unicode=" "  horiz-adv-x="440" />
<glyph unicode="&#x09;" horiz-adv-x="440" />
<glyph unicode="&#xa0;" horiz-adv-x="440" />
<glyph unicode="!" horiz-adv-x="626" d="M98 1079v406h430v-406l-102 -606h-225zM123 0v365h381v-365h-381z" />
<glyph unicode="&#x22;" horiz-adv-x="851" d="M47 1485h340l-45 -520h-250zM465 1485h340l-45 -520h-250z" />
<glyph unicode="#" horiz-adv-x="1691" d="M4 299l37 283h301l45 309h-299l35 280h305l45 314h322l-45 -314h313l45 314h322l-46 -314h304l-37 -280h-308l-45 -309h306l-35 -283h-312l-43 -299h-321l43 299h-313l-43 -299h-322l43 299h-297zM664 582h313l45 309h-313z" />
<glyph unicode="$" horiz-adv-x="1343" d="M63 502l328 4q-4 -123 53.5 -191.5t157.5 -76.5v378l-74 17q-178 37 -305 150.5t-127 297.5q0 190 150.5 299t355.5 127v162h139v-164q229 -20 375 -156.5t141 -332.5l-327 -4q4 96 -48.5 158.5t-140.5 72.5v-354l9 -2q88 -20 146 -38t138 -54.5t127 -81.5t82 -117 t35 -162q0 -197 -157.5 -317.5t-379.5 -139.5v-206h-139v206q-240 16 -391.5 160t-147.5 365zM412 1090q0 -129 190 -170v327q-84 -4 -137 -47.5t-53 -109.5zM741 236q92 6 152.5 52t60.5 118q0 68 -54 108.5t-159 69.5v-348z" />
<glyph unicode="%" horiz-adv-x="2199" d="M31 1065q0 207 93 320.5t273 113.5q178 0 270.5 -113.5t92.5 -320.5t-92.5 -319.5t-270.5 -112.5q-180 0 -273 112.5t-93 319.5zM262 1065q0 -262 135 -262q131 0 131 262q0 264 -131 264q-135 0 -135 -264zM418 0l1024 1485h340l-1024 -1485h-340zM1403 416 q0 207 93 320.5t273 113.5q178 0 270.5 -113.5t92.5 -320.5t-92.5 -319.5t-270.5 -112.5q-180 0 -273 112.5t-93 319.5zM1634 416q0 -262 135 -262q131 0 132 262q0 264 -132 264q-135 0 -135 -264z" />
<glyph unicode="&#x26;" horiz-adv-x="1439" d="M-25 434q0 150 98.5 257.5t245.5 168.5q-80 98 -116.5 171t-36.5 147q0 145 123 238t321 93q186 0 320.5 -89t134.5 -257q0 -123 -78 -222t-190 -148l155 -177q53 143 62 252h329q-27 -260 -176 -497l326 -371h-436l-111 127q-196 -154 -438 -154q-231 0 -382 127 t-151 334zM322 444q0 -94 59.5 -145t157.5 -51q121 0 227 90l-268 311q-176 -80 -176 -205zM516 1159q0 -59 117 -180q123 63 123 164q0 49 -36 76.5t-87 27.5t-84 -23.5t-33 -64.5z" />
<glyph unicode="'" horiz-adv-x="434" d="M47 1485h340l-45 -520h-250z" />
<glyph unicode="(" horiz-adv-x="649" d="M51 563q0 268 88 511t205 411h322q-121 -193 -197 -433.5t-76 -488.5q0 -244 77 -487.5t196 -433.5h-322q-117 168 -205 410.5t-88 510.5z" />
<glyph unicode=")" horiz-adv-x="649" d="M-16 -358q119 190 194.5 432.5t75.5 488.5t-76 488.5t-194 433.5h319q117 -168 206 -412t89 -510t-89 -509.5t-206 -411.5h-319z" />
<glyph unicode="*" horiz-adv-x="731" d="M-20 1161l73 193l189 -74v205h207v-205l192 74l74 -193l-197 -69l119 -166l-164 -121l-125 172l-117 -172l-174 117l121 170z" />
<glyph unicode="+" d="M102 410v284h435v408h317v-408h432v-284h-432v-410h-317v410h-435z" />
<glyph unicode="," horiz-adv-x="575" d="M68 -324l178 324h-148v365h379v-385l-209 -304h-200z" />
<glyph unicode="-" horiz-adv-x="899" d="M88 401v285h723v-285h-723z" />
<glyph unicode="." horiz-adv-x="577" d="M98 0v365h381v-365h-381z" />
<glyph unicode="/" horiz-adv-x="937" d="M0 0l600 1485h338l-600 -1485h-338z" />
<glyph unicode="0" horiz-adv-x="1466" d="M96 745q0 360 164 562t473 202q307 0 471 -201.5t164 -562.5q0 -362 -164 -567t-471 -205q-309 0 -473 205t-164 567zM442 745q0 -262 78 -392t213 -130t212 130t77 392q0 260 -77 387.5t-212 127.5t-213 -127t-78 -388z" />
<glyph unicode="1" horiz-adv-x="849" d="M23 997v248q182 4 274 59.5t143 180.5h256v-1485h-336v997h-337z" />
<glyph unicode="2" horiz-adv-x="1249" d="M47 0v276q385 281 467 349q307 250 326 422q2 12 2 24q0 92 -58.5 140.5t-148.5 48.5q-104 0 -174 -73t-64 -237h-334q-8 258 155 408.5t427 150.5q240 0 388.5 -111.5t148.5 -305.5q0 -223 -178.5 -419t-526.5 -397h711v-276h-1141z" />
<glyph unicode="3" horiz-adv-x="1310" d="M33 465h336q16 -123 93 -182.5t183 -59.5q113 0 175.5 53.5t62.5 153.5q0 94 -86 142.5t-234 48.5h-98v278h88q311 0 311 195q0 78 -65.5 122t-153.5 44q-231 0 -260 -207h-334q23 229 195 342.5t416 113.5q219 0 380.5 -99t161.5 -288q0 -109 -60.5 -198.5 t-146.5 -139.5q106 -43 169 -143t63 -209q0 -217 -171 -338t-419 -121q-154 0 -280 49.5t-217 163t-109 279.5z" />
<glyph unicode="4" horiz-adv-x="1296" d="M16 313v265l748 907h313v-875h205v-297h-205v-313h-338v313h-723zM387 610h352v434z" />
<glyph unicode="5" horiz-adv-x="1372" d="M86 457h326q41 -234 270 -234q117 0 189.5 71t72.5 195q0 129 -74.5 200t-181.5 71q-176 0 -254 -148l-309 31l104 842h994v-275h-713l-35 -278q113 78 295 78q215 0 368.5 -136.5t153.5 -381.5q0 -244 -174 -381.5t-432 -137.5q-238 0 -400.5 126t-199.5 358z" />
<glyph unicode="6" horiz-adv-x="1339" d="M80 707q0 168 37 309t110.5 253.5t199.5 176t290 63.5q246 0 380 -119.5t146 -308.5h-332q-23 185 -213 185q-123 0 -196.5 -93.5t-69.5 -275.5q123 109 320 109q207 0 357.5 -147.5t150.5 -371.5q0 -231 -163 -372.5t-419 -141.5q-301 0 -449.5 202t-148.5 532zM436 487 q0 -121 65.5 -192.5t176 -71.5t173 71t62.5 193q0 119 -63.5 192t-171.5 73q-111 0 -176.5 -71t-65.5 -194z" />
<glyph unicode="7" horiz-adv-x="1073" d="M-6 1210v275h1112v-275q-322 -270 -461 -536t-147 -674h-361q0 743 615 1210h-758z" />
<glyph unicode="8" horiz-adv-x="1400" d="M94 440q0 233 201 359q-82 57 -121 127.5t-39 183.5q0 170 155.5 284.5t409.5 114.5t409 -113.5t155 -285.5q0 -111 -39 -182.5t-119 -128.5q201 -125 201 -359q0 -217 -170 -342t-436.5 -125t-436.5 125t-170 342zM440 452.5q0 -96.5 70 -163t190.5 -66.5t190.5 66.5 t70 163t-69 159t-191.5 62.5t-191.5 -62.5t-69 -159zM471 1077q0 -82 59.5 -132t170 -50t170 50t59.5 132t-58.5 132.5t-171 50.5t-171 -50.5t-58.5 -132.5z" />
<glyph unicode="9" horiz-adv-x="1333" d="M68 995q0 233 161.5 373.5t419.5 140.5q301 0 449.5 -201.5t148.5 -531.5q0 -168 -36.5 -309t-110.5 -254t-200 -176.5t-290 -63.5q-246 0 -380 120t-146 308h332q21 -182 211 -182q125 0 198.5 93.5t69.5 273.5q-123 -109 -322 -109q-207 0 -356 147.5t-149 370.5z M414 995q0 -119 63.5 -191.5t171.5 -72.5q111 0 175.5 70.5t64.5 193.5q0 121 -64.5 193t-175 72t-173 -71t-62.5 -194z" />
<glyph unicode=":" horiz-adv-x="577" d="M98 0v365h381v-365h-381zM98 737v365h381v-365h-381z" />
<glyph unicode=";" horiz-adv-x="577" d="M68 -324l178 324h-148v365h379v-385l-209 -304h-200zM98 737v365h381v-365h-381z" />
<glyph unicode="&#x3c;" d="M135 406v284l1098 418v-315l-723 -244l723 -248v-313z" />
<glyph unicode="=" d="M156 203v282h1077v-282h-1077zM156 606v285h1077v-285h-1077z" />
<glyph unicode="&#x3e;" d="M156 -12v313l723 248l-723 244v315l1097 -418v-284z" />
<glyph unicode="?" horiz-adv-x="1277" d="M37 1001q0 238 173 373t458 135q240 0 404.5 -97t164.5 -282q0 -135 -71.5 -217t-209.5 -147q-121 -55 -169 -102.5t-48 -139.5v-53h-338q-6 31 -6 98q0 139 62.5 219t183.5 140q23 12 79 36.5t86 40t57.5 42t27.5 57.5q0 61 -61.5 98t-165.5 37q-135 0 -217 -59.5 t-82 -178.5h-328zM379 0v365h381v-365h-381z" />
<glyph unicode="@" horiz-adv-x="1691" d="M82 715q0 326 231.5 548t573.5 222q145 0 273 -40t230.5 -118t161 -206t58.5 -290q0 -240 -109.5 -380t-265.5 -140q-195 0 -250 160q-94 -162 -274 -162q-143 0 -240.5 97.5t-97.5 283.5q0 203 133 342t297 139q162 0 231 -122l17 90h223l-80 -459q-18 -82 -4 -142.5 t74 -60.5q76 0 132 95.5t56 250.5q0 248 -155.5 384t-413.5 136q-281 0 -459 -181t-178 -453q0 -262 156.5 -426t410.5 -164q197 0 385 96l59 -141q-207 -100 -446 -101q-324 0 -526.5 207t-202.5 535zM637 690q0 -154 127 -153q84 0 134 74.5t50 185.5q0 66 -33 104.5 t-90 38.5q-84 0 -136 -73.5t-52 -176.5z" />
<glyph unicode="A" horiz-adv-x="1484" d="M-10 0l559 1485h385l561 -1485h-381l-90 264h-573l-89 -264h-372zM547 549h383l-191 565z" />
<glyph unicode="B" horiz-adv-x="1462" d="M135 0v1485h647q272 0 420 -84t148 -301q0 -199 -176 -309q235 -84 235 -332q0 -459 -600 -459h-674zM485 295h328q111 0 168 44t57 124t-57 124t-168 44h-328v-336zM485 891h310q90 0 140 41t50 110.5t-49 108.5t-141 39h-310v-299z" />
<glyph unicode="C" horiz-adv-x="1536" d="M45 743q0 352 203 559t551 207q274 0 461.5 -161.5t224.5 -417.5h-344q-29 145 -125 218t-230 73q-160 0 -265 -128t-105 -350q0 -227 104.5 -354t270.5 -127q131 0 230 67.5t130 223.5h344q-41 -260 -234.5 -420t-472.5 -160q-346 0 -544.5 207t-198.5 563z" />
<glyph unicode="D" horiz-adv-x="1536" d="M135 0v1485h490q868 0 868 -742q0 -743 -868 -743h-490zM485 295h146q109 0 186.5 15.5t152 60.5t113.5 138t39 234.5t-39 234.5t-113.5 137t-152.5 59.5t-186 15.5h-146v-895z" />
<glyph unicode="E" horiz-adv-x="1357" d="M135 0v1485h1139v-307h-789v-260h746v-310h-746v-299h789v-309h-1139z" />
<glyph unicode="F" horiz-adv-x="1226" d="M135 0v1485h1094v-307h-744v-260h699v-310h-699v-608h-350z" />
<glyph unicode="G" horiz-adv-x="1603" d="M45 748q0 348 209 554.5t549 206.5q254 0 433 -126t232 -363h-344q-27 86 -109.5 143.5t-215.5 57.5q-168 0 -275.5 -123t-107.5 -350q0 -231 104.5 -358.5t284.5 -127.5q139 0 234.5 59.5t95.5 190.5v29h-359v286h709v-827h-268l-11 164q-139 -190 -454 -191 q-328 0 -517.5 209t-189.5 566z" />
<glyph unicode="H" horiz-adv-x="1581" d="M135 0v1485h350v-567h611v567h350v-1485h-350v608h-611v-608h-350z" />
<glyph unicode="I" horiz-adv-x="618" d="M135 0v1485h350v-1485h-350z" />
<glyph unicode="J" horiz-adv-x="1312" d="M23 567h350q4 -174 59 -244.5t170 -70.5t172 71.5t57 243.5v918h351v-918q0 -281 -149.5 -437.5t-430.5 -156.5q-279 0 -425 162t-154 432z" />
<glyph unicode="K" horiz-adv-x="1460" d="M135 0v1485h350v-588l539 588h428l-549 -592l578 -893h-422l-402 627l-172 -189v-438h-350z" />
<glyph unicode="L" horiz-adv-x="1196" d="M135 0v1485h350v-1176h713v-309h-1063z" />
<glyph unicode="M" horiz-adv-x="1943" d="M135 0v1485h553l285 -1065l291 1065h546v-1485h-340v1190l-331 -1190h-330l-334 1188v-1188h-340z" />
<glyph unicode="N" horiz-adv-x="1628" d="M135 0v1485h426l596 -1024v1024h338v-1485h-426l-596 1024v-1024h-338z" />
<glyph unicode="O" horiz-adv-x="1630" d="M45 741q0 346 213 557t557 211q342 0 556 -211t214 -557t-214 -557t-556 -211q-344 0 -557 211t-213 557zM416 741.5q0 -227.5 113.5 -353.5t285.5 -126t285.5 126t113.5 353.5t-113.5 353.5t-285.5 126t-285.5 -126t-113.5 -353.5z" />
<glyph unicode="P" horiz-adv-x="1386" d="M135 0v1485h572q154 0 269.5 -21.5t210.5 -74t144 -149.5t49 -238.5t-49 -239.5t-144 -151.5t-211 -75t-269 -21.5h-222v-514h-350zM485 809h232q137 0 215 42t78 150.5t-77 148.5t-216 40h-232v-381z" />
<glyph unicode="Q" horiz-adv-x="1630" d="M45 741q0 346 213 557t557 211q342 0 556 -211t214 -557q0 -381 -258 -598l170 -225l-203 -149l-190 251q-137 -47 -289 -47q-344 0 -557 211t-213 557zM416 741.5q0 -227.5 113.5 -353.5t285.5 -126q53 0 98 12l-147 199l203 148l153 -205q92 129 92 325 q0 227 -113.5 353.5t-285.5 126.5t-285.5 -126t-113.5 -353.5z" />
<glyph unicode="R" horiz-adv-x="1476" d="M135 0v1485h572q123 0 219 -12.5t183 -43t145.5 -82t92 -132t33.5 -189.5q0 -297 -290 -410l366 -616h-412l-321 559h-238v-559h-350zM485 854h232q141 0 217 35t76 133q0 96 -77 132t-216 36h-232v-336z" />
<glyph unicode="S" horiz-adv-x="1378" d="M31 483h348q57 -227 344 -227q104 0 179 39t75 123q0 68 -70.5 108.5t-206.5 69.5l-180 37q-461 94 -461 432q0 143 95.5 247.5t231.5 150.5t290 46q152 0 278.5 -44t221.5 -149t118 -261h-346q-27 84 -103.5 129t-189.5 45q-106 0 -170.5 -38t-64.5 -106q0 -55 46 -94 t126 -55l203 -41q92 -18 151.5 -33.5t141 -50.5t130 -77t84 -112.5t35.5 -160.5q0 -221 -187 -354.5t-435 -133.5q-287 0 -465 134.5t-219 375.5z" />
<glyph unicode="T" horiz-adv-x="1325" d="M10 1178v307h1305v-307h-477v-1178h-353v1178h-475z" />
<glyph unicode="U" horiz-adv-x="1505" d="M111 635v850h350v-887q0 -176 61.5 -257t233.5 -81t230 88t58 270v867h351v-838q0 -348 -148.5 -511t-490.5 -163q-340 0 -492.5 150.5t-152.5 511.5z" />
<glyph unicode="V" horiz-adv-x="1390" d="M-10 1485h372l343 -1092l342 1092h356l-504 -1485h-410z" />
<glyph unicode="W" horiz-adv-x="1875" d="M0 1485h354l203 -1026l201 1026h362l219 -1030l187 1030h350l-336 -1485h-377l-225 1047l-223 -1047h-375z" />
<glyph unicode="X" horiz-adv-x="1478" d="M-23 0l558 756l-533 729h412l327 -449l330 449h406l-535 -723l559 -762h-411l-355 481l-354 -481h-404z" />
<glyph unicode="Y" horiz-adv-x="1417" d="M-33 1485h410l332 -570l335 570h406l-573 -912v-573h-351v578z" />
<glyph unicode="Z" horiz-adv-x="1343" d="M39 0v268l772 910h-713v307h1170v-268l-768 -908h778v-309h-1239z" />
<glyph unicode="[" horiz-adv-x="663" d="M117 -358v1843h569v-277h-237v-1290h237v-276h-569z" />
<glyph unicode="\" horiz-adv-x="937" d="M0 1485h340l598 -1485h-336z" />
<glyph unicode="]" horiz-adv-x="663" d="M-23 -82h236v1290h-236v277h570v-1843h-570v276z" />
<glyph unicode="^" horiz-adv-x="1136" d="M45 692l385 793h279l385 -793h-320l-205 467l-204 -467h-320z" />
<glyph unicode="_" horiz-adv-x="1001" d="M45 0h911v-285h-911v285z" />
<glyph unicode="`" horiz-adv-x="667" d="M45 1485h383l195 -238h-254z" />
<glyph unicode="a" horiz-adv-x="1222" d="M61 297q0 98 52.5 170t156 116t228.5 68.5t297 36.5v43q0 96 -45 136t-142 40q-174 0 -196 -162h-316q12 164 158.5 278t382.5 114q246 1 371 -109q120 -105 120 -335v-19l-4 -240v-115q0 -215 25 -319h-332l-4 133q-113 -160 -371 -160q-162 0 -271.5 88.5t-109.5 235.5 zM410 322q0 -53 44 -86t111 -33q238 0 238 260v26q-100 -10 -162.5 -19t-120 -27.5t-84 -48t-26.5 -72.5z" />
<glyph unicode="b" horiz-adv-x="1331" d="M121 0v1485h338v-533q51 86 145 130t193 44q217 0 351 -154.5t134 -420.5t-134 -422t-351 -156q-98 0 -192.5 44t-145.5 130v-147h-338zM442 551q0 -162 68 -238.5t176 -76.5q106 0 176 83.5t70 231t-70 230.5t-176 83q-109 0 -176.5 -75.5t-67.5 -237.5z" />
<glyph unicode="c" horiz-adv-x="1220" d="M55 557q0 262 155.5 420t407.5 158q125 0 230.5 -38t196 -139.5t120.5 -259.5h-315q-41 174 -211 174q-102 0 -171 -76.5t-69 -240.5q0 -166 69 -242.5t171 -76.5q184 0 225 170h316q-53 -225 -211 -329t-351 -104q-268 0 -415.5 158t-147.5 426z" />
<glyph unicode="d" horiz-adv-x="1331" d="M49 551q0 266 134 420.5t352 154.5q98 0 192 -44t145 -130v533h338v-1485h-338v147q-51 -86 -145 -130t-192 -44q-217 0 -351.5 156t-134.5 422zM399 550.5q0 -147.5 70 -231t176 -83.5q109 0 176.5 76.5t67.5 238.5t-67.5 237.5t-176.5 75.5q-106 0 -176 -83t-70 -230.5 z" />
<glyph unicode="e" horiz-adv-x="1269" d="M55 557q0 258 171 418t419 160q272 -1 428 -187q141 -168 141 -426q0 -28 -2 -57h-817q8 -111 81 -170t173 -59h3q179 0 245 110h311q-70 -184 -221 -278.5t-328 -94.5q-272 0 -438 157t-166 427zM399 670h478q-4 100 -68 153.5t-164 53.5q-96 0 -164.5 -51.5 t-81.5 -155.5z" />
<glyph unicode="f" horiz-adv-x="757" d="M4 862v240h150v69q0 188 89 251t320 63h172v-238h-96q-94 0 -120.5 -14t-26.5 -76v-55h243v-240h-243v-862h-338v862h-150z" />
<glyph unicode="g" horiz-adv-x="1331" d="M49 584q0 256 133 399t353 143q98 0 193 -44t146 -130v150h336v-955q0 -147 -44 -254.5t-124.5 -166t-178 -85t-218.5 -26.5q-233 0 -378.5 108.5t-172.5 270.5h318q39 -141 229 -141q125 0 179 57t54 172v131q-51 -86 -146 -130t-193 -44q-219 0 -352.5 143.5 t-133.5 401.5zM399 584q0 -141 69 -212t177 -71q244 0 244 283q0 280 -244 280q-109 0 -177.5 -70.5t-68.5 -209.5z" />
<glyph unicode="h" horiz-adv-x="1271" d="M121 0v1485h338v-529q41 70 131 120t211 50q205 0 287.5 -114.5t82.5 -349.5v-662h-337v578q0 59 -2.5 91.5t-10.5 75.5t-25.5 64.5t-50 38t-79.5 16.5q-109 0 -158 -71.5t-49 -227.5v-565h-338z" />
<glyph unicode="i" horiz-adv-x="581" d="M121 0v1102h340v-1102h-340zM121 1214v271h338v-271h-338z" />
<glyph unicode="j" horiz-adv-x="579" d="M-31 -115h39q70 0 91.5 23.5t21.5 95.5v1098h338v-1110q0 -203 -83 -276.5t-282 -73.5h-125v243zM121 1214v271h338v-271h-338z" />
<glyph unicode="k" horiz-adv-x="1253" d="M121 0v1485h338v-803l370 420h400l-393 -422l426 -680h-396l-260 434l-147 -158v-276h-338z" />
<glyph unicode="l" horiz-adv-x="579" d="M121 0v1485h338v-1485h-338z" />
<glyph unicode="m" horiz-adv-x="1968" d="M121 0v1102h338v-146q41 70 130 120t204 50q250 0 327 -186q127 186 377 186q205 0 288 -114.5t83 -349.5v-662h-338v578q0 57 -2 92t-11.5 75.5t-26.5 64.5t-50 39t-80 15q-102 0 -149.5 -70.5t-47.5 -220.5v-573h-338v578q0 57 -2 92t-11 75.5t-26.5 64.5t-50.5 39 t-80 15q-102 0 -149 -70.5t-47 -220.5v-573h-338z" />
<glyph unicode="n" horiz-adv-x="1271" d="M121 0v1102h338v-146q41 70 131 120t211 50q205 0 287.5 -114.5t82.5 -349.5v-662h-337v578q0 57 -2.5 90.5t-11.5 76.5t-26.5 64.5t-50 38t-79.5 16.5q-109 0 -157 -71.5t-48 -227.5v-565h-338z" />
<glyph unicode="o" horiz-adv-x="1277" d="M55 555q0 283 168 431.5t416 148.5t416 -148.5t168 -431.5t-168 -432.5t-416 -149.5t-416 149.5t-168 432.5zM399 555q0 -166 64.5 -242.5t175.5 -76.5t175.5 76.5t64.5 242.5t-65.5 241.5t-174.5 75.5t-174.5 -75.5t-65.5 -241.5z" />
<glyph unicode="p" horiz-adv-x="1331" d="M121 -358v1460h338v-150q51 86 145 130t193 44q217 0 351 -154.5t134 -420.5t-134 -422t-351 -156q-98 0 -192.5 44t-145.5 130v-505h-338zM442 551q0 -162 68 -238.5t176 -76.5q106 0 176 83.5t70 231t-70 230.5t-176 83q-109 0 -176.5 -75.5t-67.5 -237.5z" />
<glyph unicode="q" horiz-adv-x="1331" d="M49 551q0 266 134 420.5t352 154.5q98 0 192 -44t145 -130v150h338v-1460h-338v505q-51 -86 -145 -130t-192 -44q-217 0 -351.5 156t-134.5 422zM399 550.5q0 -147.5 70 -231t176 -83.5q109 0 176.5 76.5t67.5 238.5t-67.5 237.5t-176.5 75.5q-106 0 -176 -83t-70 -230.5 z" />
<glyph unicode="r" horiz-adv-x="821" d="M121 0v1102h325v-209q82 209 302 217h24q19 0 27 -2v-330q-39 6 -92 6q-127 0 -187.5 -53t-60.5 -178v-553h-338z" />
<glyph unicode="s" horiz-adv-x="1191" d="M66 358h313q41 -139 231 -139q94 0 149.5 25.5t55.5 72.5q0 39 -39 62.5t-133 40.5l-197 33q-168 27 -263 111.5t-95 226.5q0 158 145.5 248.5t358.5 90.5q205 0 348 -87t174 -265h-315q-29 106 -215 107q-176 0 -176 -82q0 -39 31.5 -61.5t103.5 -36.5l205 -37 q207 -39 299 -110t92 -212q0 -180 -147.5 -276.5t-385.5 -96.5q-223 0 -367.5 98.5t-172.5 286.5z" />
<glyph unicode="t" horiz-adv-x="811" d="M0 862v240h174v301h338v-301h242v-240h-242v-493q0 -76 29.5 -100.5t115.5 -24.5h97v-244h-215q-211 0 -288 61.5t-77 247.5v553h-174z" />
<glyph unicode="u" horiz-adv-x="1263" d="M98 438v664h338v-580q0 -59 2 -92t10.5 -76t26 -64.5t50 -37.5t79.5 -16q109 0 154 65.5t45 218.5v582h338v-1102h-338v154q-55 -88 -129 -134.5t-195 -46.5q-211 0 -296 115t-85 350z" />
<glyph unicode="v" horiz-adv-x="1169" d="M0 1102h365l233 -776l223 776h348l-393 -1102h-375z" />
<glyph unicode="w" horiz-adv-x="1607" d="M10 1102h346l146 -748l127 748h348l129 -748l145 748h346l-254 -1102h-393l-147 813l-148 -813h-391z" />
<glyph unicode="x" horiz-adv-x="1214" d="M0 0l424 551l-408 551h383l219 -297l228 297h352l-405 -533l421 -569h-380l-236 315l-240 -315h-358z" />
<glyph unicode="y" horiz-adv-x="1153" d="M0 1102h371l202 -690l218 690h362l-432 -1102q-84 -215 -176 -286.5t-303 -71.5h-109v243h68q106 0 141 15.5t59 76.5l11 29z" />
<glyph unicode="z" horiz-adv-x="1122" d="M45 0v268l578 566h-539v268h973v-268l-578 -566h602v-268h-1036z" />
<glyph unicode="{" horiz-adv-x="737" d="M45 428v272q94 0 125 52.5t31 158.5v213q0 203 105.5 282t318.5 79h114v-266h-53q-78 0 -111.5 -20.5t-33.5 -78.5v-274q0 -227 -207 -279v-6q207 -51 207 -278v-277q0 -59 33.5 -78.5t111.5 -19.5h53v-266h-114q-213 0 -318.5 78.5t-105.5 281.5v213q0 111 -31 162 t-125 51z" />
<glyph unicode="|" horiz-adv-x="593" d="M135 -184v1669h324v-1669h-324z" />
<glyph unicode="}" horiz-adv-x="737" d="M0 -92h53q78 0 112 19.5t34 78.5v277q0 227 207 278v6q-207 51 -207 279v274q0 57 -34 78t-112 21h-53v266h115q213 0 318.5 -79t105.5 -282v-213q0 -106 30.5 -158.5t124.5 -52.5v-272q-94 0 -124.5 -51t-30.5 -162v-213q0 -203 -105.5 -281.5t-318.5 -78.5h-115v266z " />
<glyph unicode="~" d="M188 342q4 201 75 305.5t229 104.5q92 0 213.5 -68t168.5 -68q88 0 91 136h235q-8 -205 -74.5 -307.5t-224.5 -102.5q-82 0 -205 66.5t-182 66.5q-45 0 -66.5 -29.5t-23.5 -103.5h-236z" />
<glyph unicode="&#xa1;" horiz-adv-x="626" d="M98 47l103 606h225l102 -606v-405h-430v405zM123 737v365h381v-365h-381z" />
<glyph unicode="&#xa2;" horiz-adv-x="1193" d="M55 557q0 250 145.5 406.5t381.5 169.5v145h104v-148q174 -14 306 -118.5t173 -313.5h-315q-35 147 -164 170v-630q141 20 178 168h316q-49 -207 -185.5 -310.5t-308.5 -118.5v-190h-104v188q-250 12 -388.5 169t-138.5 413zM399 555q0 -139 51.5 -217t131.5 -96v622 q-80 -18 -131.5 -94t-51.5 -215z" />
<glyph unicode="&#xa3;" horiz-adv-x="1343" d="M45 659v154h176q-98 184 -98 305q0 100 47 177t128 123t178 68.5t206 22.5q264 0 434 -146t166 -388h-330q4 137 -72.5 200.5t-193.5 63.5q-94 0 -151.5 -41t-57.5 -108q0 -45 18.5 -98.5t36 -85.5t56.5 -93h350v-154h-279q16 -53 17 -92q0 -158 -234 -311l2 -2 q82 45 185 45q59 0 166.5 -23.5t152.5 -23.5q111 0 230 67l110 -262q-162 -84 -368 -84q-80 0 -227.5 40t-219.5 40q-154 0 -299 -80l-123 258q141 66 207 138.5t66 189.5q0 43 -23 100h-256z" />
<glyph unicode="&#xa4;" horiz-adv-x="1302" d="M111 283l141 143q-90 125 -90 283q0 160 90 284l-141 144l100 100l139 -139q129 100 295 100q170 0 301 -104l146 143l100 -100l-148 -148q90 -131 91 -280q0 -156 -91 -281l148 -145l-100 -101l-146 144q-133 -100 -301 -101q-166 0 -293 99l-141 -142zM440 709 q0 -96 56.5 -156.5t148.5 -60.5q98 0 156.5 59t58.5 158q0 100 -58.5 162.5t-156.5 62.5q-92 0 -148.5 -62.5t-56.5 -162.5z" />
<glyph unicode="&#xa5;" horiz-adv-x="1460" d="M-10 1485h409l332 -592l336 592h406l-525 -846h279v-164h-332v-131h332v-162h-332v-182h-338v182h-319v162h319v131h-319v164h268z" />
<glyph unicode="&#xa6;" horiz-adv-x="499" d="M121 -184v624h258v-624h-258zM121 860v625h258v-625h-258z" />
<glyph unicode="&#xa7;" horiz-adv-x="1271" d="M45 647q0 164 193 285q-88 104 -88 235q0 160 138 251t339 91q215 0 349 -104.5t154 -306.5h-311q-33 154 -194 153q-66 0 -105 -20.5t-39 -55t33 -63.5t104 -63l275 -134q172 -84 254 -167.5t82 -204.5q0 -186 -207 -299q98 -102 98 -242q0 -180 -140 -288.5 t-364 -108.5q-225 0 -360 128t-152 345h314q25 -213 207 -213q74 0 115.5 30.5t41.5 79.5q0 47 -40 86t-126 82l-258 125q-313 154 -313 379zM377 674q0 -41 33.5 -72t103.5 -63l272 -133l9 -7q94 49 94 105q0 45 -40 75.5t-132 75.5l-248 121q-92 -49 -92 -102z" />
<glyph unicode="&#xa8;" horiz-adv-x="849" d="M45 1225v260h303v-260h-303zM504 1225v260h301v-260h-301z" />
<glyph unicode="&#xa9;" horiz-adv-x="1689" d="M78 739q0 338 222 555t545.5 217t545 -217t221.5 -555q0 -336 -221.5 -551t-544.5 -215q-326 0 -547 215t-221 551zM248 739q0 -268 172 -440t426 -172q258 0 427 172t169 440q0 274 -168 445.5t-428 171.5q-256 0 -427 -172.5t-171 -444.5zM430 741q0 188 114.5 303 t303.5 115q152 0 263.5 -83t135.5 -214l-211 -51q-10 76 -61 124t-127 48q-84 0 -137.5 -62.5t-53.5 -179.5q0 -115 51.5 -178t139.5 -63q164 0 194 155l213 -47q-37 -131 -146.5 -210t-266.5 -79q-190 0 -301 118t-111 304z" />
<glyph unicode="&#xaa;" horiz-adv-x="716" d="M37 1090q0 86 57 129q10 8 25.5 16t28 14t34 11.5t33.5 8.5t38 8t36 6t39.5 6t36.5 5l75 9v12q0 63 -86 63q-80 0 -88 -63h-209q20 213 322 213q143 0 210.5 -58.5t67.5 -189.5l-2 -131q-4 -117 13 -252h-201l-2 70q-53 -86 -195 -86q-106 0 -169.5 61.5t-63.5 147.5z M264 1098q0 -25 18.5 -42.5t53.5 -17.5q49 0 79.5 24.5t30.5 67.5v37l-81 -8q-100 -8 -101 -61z" />
<glyph unicode="&#xab;" horiz-adv-x="1259" d="M20 561l345 473h317l-268 -475l266 -475h-315zM555 561l344 473h318l-269 -475l266 -475h-315z" />
<glyph unicode="&#xac;" d="M61 657v283h1184v-815h-317v532h-867z" />
<glyph unicode="&#xad;" horiz-adv-x="899" d="M88 401v285h723v-285h-723z" />
<glyph unicode="&#xae;" horiz-adv-x="1689" d="M78 739q0 338 222 555t545.5 217t545 -217t221.5 -555q0 -336 -221.5 -551t-544.5 -215q-326 0 -547 215t-221 551zM248 739q0 -268 172 -440t426 -172q258 0 427 172t169 440q0 274 -168 445.5t-428 171.5q-256 0 -427 -172.5t-171 -444.5zM494 358v820h327 q182 0 281.5 -59.5t99.5 -209.5q0 -166 -149 -225l198 -326h-245l-172 293h-119v-293h-221zM715 821h162q104 0 104 88q0 39 -26.5 68t-77.5 29h-162v-185z" />
<glyph unicode="&#xaf;" horiz-adv-x="731" d="M45 1268v219h641v-219h-641z" />
<glyph unicode="&#xb0;" horiz-adv-x="763" d="M23 1151q0 152 105 256t253 104q152 0 257 -104t105 -256q0 -147 -106.5 -253.5t-255.5 -106.5q-147 0 -252.5 106.5t-105.5 253.5zM231 1151q0 -68 42 -115t108 -47q68 0 112 47t44 115t-44 115t-112 47q-66 0 -108 -47t-42 -115z" />
<glyph unicode="&#xb1;" d="M125 0v285h1139v-285h-1139zM125 578v282h416v242h309v-242h414v-282h-414v-242h-309v242h-416z" />
<glyph unicode="&#xb2;" horiz-adv-x="747" d="M31 897v180q16 10 99 67.5t124 88.5t101.5 82t88 94t27.5 80q0 88 -96 88q-121 0 -129 -154h-215q2 154 95 239t259 85q141 0 228 -60.5t87 -179.5q0 -115 -84 -204t-270 -211h352v-195h-667z" />
<glyph unicode="&#xb3;" horiz-adv-x="790" d="M31 1171h219q22 -120 145 -120q55 0 84 24.5t29 61.5q0 92 -164 92h-41v186h41q145 0 145 88q0 37 -29.5 55.5t-72.5 18.5q-49 0 -85 -26.5t-40 -73.5h-221q16 133 110.5 201.5t251.5 68.5q139 0 227.5 -60.5t88.5 -166.5q0 -127 -111 -185q61 -25 98 -77t37 -121 q0 -119 -102 -187.5t-250 -68.5q-156 0 -251 76.5t-109 213.5z" />
<glyph unicode="&#xb4;" horiz-adv-x="667" d="M45 1247l195 238h383l-324 -238h-254z" />
<glyph unicode="&#xb5;" horiz-adv-x="1288" d="M90 -358q27 150 27 370v1090h338v-590q0 -279 190 -279q193 0 193 279v590h333v-1102h-333v96q-63 -109 -193 -108q-133 0 -194 108v-96q0 -223 -25 -358h-336z" />
<glyph unicode="&#xb6;" horiz-adv-x="1032" d="M0 1135q0 164 128 257t339 93h436v-1667h-168v1511h-229v-1511h-166v968q-137 14 -238.5 98.5t-101.5 250.5z" />
<glyph unicode="&#xb7;" horiz-adv-x="577" d="M98 369v364h381v-364h-381z" />
<glyph unicode="&#xb8;" horiz-adv-x="567" d="M45 -383l35 111q49 -29 135 -29q98 0 98 59q0 57 -82 58q-49 0 -77 -19l-62 35l105 170h127l-68 -106q25 8 76 8q74 0 132 -34t58 -106q0 -90 -81 -133t-201 -43q-105 0 -195 29z" />
<glyph unicode="&#xb9;" horiz-adv-x="509" d="M10 1440v164q109 4 160 32.5t76 96.5h176v-836h-225v543h-187z" />
<glyph unicode="&#xba;" horiz-adv-x="745" d="M35 1204.5q0 157.5 95 240.5t243 83q145 0 241.5 -83t96.5 -240.5t-96.5 -240.5t-241.5 -83q-147 0 -242.5 83t-95.5 240.5zM264 1204q0 -76 30 -114.5t79 -38.5q106 0 106 153.5t-106 153.5q-49 0 -79 -39t-30 -115z" />
<glyph unicode="&#xbb;" horiz-adv-x="1259" d="M43 1034h317l345 -473l-345 -477h-315l266 475zM578 1034h317l344 -473l-344 -477h-315l266 475z" />
<glyph unicode="&#xbc;" horiz-adv-x="1869" d="M10 1192v164q109 4 160 32.5t76 96.5h176v-836h-225v543h-187zM100 0l1024 1485h340l-1024 -1485h-340zM1087 166v172l429 498h198v-478h127v-192h-127v-166h-225v166h-402zM1315 358h174v203z" />
<glyph unicode="&#xbd;" horiz-adv-x="1802" d="M10 1192v164q109 4 160 32.5t76 96.5h176v-836h-225v543h-187zM100 0l1024 1485h340l-1024 -1485h-340zM1085 0v180q16 10 99.5 67.5t124.5 88.5t101 82t88 94t28 80q0 88 -96 88q-121 0 -130 -154h-215q2 154 95.5 239t259.5 85q141 0 228 -60.5t87 -179.5 q0 -115 -84 -204t-270 -211h352v-195h-668z" />
<glyph unicode="&#xbe;" horiz-adv-x="2150" d="M31 924h219q22 -121 145 -121q55 0 84 24.5t29 61.5q0 92 -164 92h-41v186h41q145 0 145 88q0 37 -29.5 55.5t-72.5 18.5q-49 0 -85 -26.5t-40 -73.5h-221q16 133 110.5 201.5t251.5 68.5q139 0 227.5 -60.5t88.5 -166.5q0 -127 -111 -185q61 -25 98 -77t37 -121 q0 -119 -102 -187.5t-250 -68.5q-156 0 -251 76.5t-109 214.5zM381 0l1024 1485h340l-1024 -1485h-340zM1368 166v172l428 498h199v-478h127v-192h-127v-166h-226v166h-401zM1595 358h174v203z" />
<glyph unicode="&#xbf;" horiz-adv-x="1277" d="M37 -4q0 135 71.5 217t208.5 147q121 55 169.5 102.5t48.5 139.5v53h337q6 -31 7 -98q0 -141 -61.5 -218t-184.5 -140q-23 -12 -79 -37t-86 -40.5t-57.5 -42t-27.5 -56.5q0 -61 61.5 -98.5t165.5 -37.5q135 0 217 59.5t82 178.5h328q0 -238 -173 -373t-458 -135 q-240 0 -404.5 97.5t-164.5 281.5zM516 737v365h381v-365h-381z" />
<glyph unicode="&#xc0;" horiz-adv-x="1484" d="M-10 0l559 1485h385l561 -1485h-381l-90 264h-573l-89 -264h-372zM266 1815h412l213 -232h-299zM547 549h383l-191 565z" />
<glyph unicode="&#xc1;" horiz-adv-x="1484" d="M-10 0l559 1485h385l561 -1485h-381l-90 264h-573l-89 -264h-372zM547 549h383l-191 565zM592 1583l211 232h414l-326 -232h-299z" />
<glyph unicode="&#xc2;" horiz-adv-x="1484" d="M-10 0l559 1485h385l561 -1485h-381l-90 264h-573l-89 -264h-372zM293 1583l287 232h331l281 -232h-336l-111 100l-120 -100h-332zM547 549h383l-191 565z" />
<glyph unicode="&#xc3;" horiz-adv-x="1484" d="M-10 0l559 1485h385l561 -1485h-381l-90 264h-573l-89 -264h-372zM309 1577q27 135 113 186.5t182 51.5q72 0 146.5 -38t115.5 -38q96 0 111 76h199q-14 -74 -48 -124.5t-80.5 -73t-86 -31.5t-80.5 -9q-74 0 -152 38t-113 38q-94 0 -108 -76h-199zM547 549h383l-191 565z " />
<glyph unicode="&#xc4;" horiz-adv-x="1484" d="M-10 0l559 1485h385l561 -1485h-381l-90 264h-573l-89 -264h-372zM356 1583v232h301v-232h-301zM547 549h383l-191 565zM825 1583v232h303v-232h-303z" />
<glyph unicode="&#xc5;" horiz-adv-x="1484" d="M-10 0l559 1485h385l561 -1485h-381l-90 264h-573l-89 -264h-372zM547 549h383l-191 565zM557 1741q0 74 54 124t130 50q80 0 133.5 -49t53.5 -125q0 -78 -53.5 -126t-133 -48t-132 48t-52.5 126zM653 1741q0 -37 26 -61.5t62.5 -24.5t62 24.5t25.5 61.5t-25.5 62.5 t-62 25.5t-62.5 -25.5t-26 -62.5z" />
<glyph unicode="&#xc6;" horiz-adv-x="2256" d="M-88 0l1122 1485h1139v-307h-789v-260h744v-310h-744v-299h789v-309h-1139v264h-518l-186 -264h-418zM719 549h315v444z" />
<glyph unicode="&#xc7;" horiz-adv-x="1536" d="M45 743q0 352 203 559t551 207q274 0 461.5 -161.5t224.5 -417.5h-344q-29 145 -125 218t-230 73q-160 0 -265 -128t-105 -350q0 -227 104.5 -354t270.5 -127q131 0 230 67.5t130 223.5h344q-41 -260 -234.5 -420t-472.5 -160q-346 0 -544.5 207t-198.5 563zM532 -383 l35 111q49 -29 135 -29q98 0 99 59q0 57 -82 58q-49 0 -78 -19l-61 35l104 170h127l-68 -106q25 8 76 8q74 0 132.5 -34t58.5 -106q0 -90 -81 -133t-202 -43q-105 0 -195 29z" />
<glyph unicode="&#xc8;" horiz-adv-x="1357" d="M135 0v1485h1139v-307h-789v-260h746v-310h-746v-299h789v-309h-1139zM270 1815h412l213 -232h-299z" />
<glyph unicode="&#xc9;" horiz-adv-x="1357" d="M135 0v1485h1139v-307h-789v-260h746v-310h-746v-299h789v-309h-1139zM535 1583l210 232h414l-325 -232h-299z" />
<glyph unicode="&#xca;" horiz-adv-x="1357" d="M135 0v1485h1139v-307h-789v-260h746v-310h-746v-299h789v-309h-1139zM270 1583l287 232h332l280 -232h-335l-111 100l-121 -100h-332z" />
<glyph unicode="&#xcb;" horiz-adv-x="1357" d="M135 0v1485h1139v-307h-789v-260h746v-310h-746v-299h789v-309h-1139zM336 1583v232h301v-232h-301zM805 1583v232h303v-232h-303z" />
<glyph unicode="&#xcc;" horiz-adv-x="618" d="M-164 1815h412l213 -232h-299zM135 0v1485h350v-1485h-350z" />
<glyph unicode="&#xcd;" horiz-adv-x="618" d="M135 0v1485h350v-1485h-350zM160 1583l211 232h413l-325 -232h-299z" />
<glyph unicode="&#xce;" horiz-adv-x="618" d="M-137 1583l287 232h331l281 -232h-336l-111 100l-120 -100h-332zM135 0v1485h350v-1485h-350z" />
<glyph unicode="&#xcf;" horiz-adv-x="618" d="M-74 1583v232h301v-232h-301zM135 0v1485h350v-1485h-350zM395 1583v232h303v-232h-303z" />
<glyph unicode="&#xd0;" horiz-adv-x="1605" d="M23 598v307h182v580h489q868 0 869 -742q0 -743 -869 -743h-489v598h-182zM555 295h145q109 0 187 15.5t152.5 60.5t113.5 138t39 234.5t-39 234.5t-113.5 137t-152.5 59.5t-187 15.5h-145v-285h215v-307h-215v-303z" />
<glyph unicode="&#xd1;" horiz-adv-x="1628" d="M135 0v1485h426l596 -1024v1024h338v-1485h-426l-596 1024v-1024h-338zM410 1577q27 135 112.5 186.5t182.5 51.5q72 0 146.5 -38t115.5 -38q96 0 110 76h199q-14 -74 -48 -124.5t-80 -73t-86 -31.5t-81 -9q-74 0 -151.5 38t-112.5 38q-94 0 -109 -76h-198z" />
<glyph unicode="&#xd2;" horiz-adv-x="1630" d="M45 741q0 346 213 557t557 211q342 0 556 -211t214 -557t-214 -557t-556 -211q-344 0 -557 211t-213 557zM340 1815h412l213 -232h-299zM416 741.5q0 -227.5 113.5 -353.5t285.5 -126t285.5 126t113.5 353.5t-113.5 353.5t-285.5 126t-285.5 -126t-113.5 -353.5z" />
<glyph unicode="&#xd3;" horiz-adv-x="1630" d="M45 741q0 346 213 557t557 211q342 0 556 -211t214 -557t-214 -557t-556 -211q-344 0 -557 211t-213 557zM416 741.5q0 -227.5 113.5 -353.5t285.5 -126t285.5 126t113.5 353.5t-113.5 353.5t-285.5 126t-285.5 -126t-113.5 -353.5zM666 1583l211 232h413l-325 -232h-299 z" />
<glyph unicode="&#xd4;" horiz-adv-x="1630" d="M45 741q0 346 213 557t557 211q342 0 556 -211t214 -557t-214 -557t-556 -211q-344 0 -557 211t-213 557zM367 1583l286 232h332l281 -232h-336l-111 100l-121 -100h-331zM416 741.5q0 -227.5 113.5 -353.5t285.5 -126t285.5 126t113.5 353.5t-113.5 353.5t-285.5 126 t-285.5 -126t-113.5 -353.5z" />
<glyph unicode="&#xd5;" horiz-adv-x="1630" d="M45 741q0 346 213 557t557 211q342 0 556 -211t214 -557t-214 -557t-556 -211q-344 0 -557 211t-213 557zM383 1577q27 135 113 186.5t182 51.5q72 0 146.5 -38t115.5 -38q96 0 111 76h198q-14 -74 -48 -124.5t-80 -73t-86 -31.5t-81 -9q-74 0 -151.5 38t-112.5 38 q-94 0 -108 -76h-199zM416 741.5q0 -227.5 113.5 -353.5t285.5 -126t285.5 126t113.5 353.5t-113.5 353.5t-285.5 126t-285.5 -126t-113.5 -353.5z" />
<glyph unicode="&#xd6;" horiz-adv-x="1630" d="M45 741q0 346 213 557t557 211q342 0 556 -211t214 -557t-214 -557t-556 -211q-344 0 -557 211t-213 557zM416 741.5q0 -227.5 113.5 -353.5t285.5 -126t285.5 126t113.5 353.5t-113.5 353.5t-285.5 126t-285.5 -126t-113.5 -353.5zM430 1583v232h301v-232h-301z M899 1583v232h303v-232h-303z" />
<glyph unicode="&#xd7;" d="M143 248l318 305l-307 289l237 223l305 -291l316 303l235 -225l-317 -299l303 -287l-236 -225l-301 287l-319 -301z" />
<glyph unicode="&#xd8;" horiz-adv-x="1628" d="M45 741q0 346 213 557t557 211q256 0 442 -120l99 116l114 -94l-98 -115q213 -207 213 -555q0 -346 -214 -557t-556 -211q-272 0 -461 131l-123 -145l-110 96l123 144q-199 205 -199 542zM416 741q0 -160 57 -272l574 674q-102 78 -232 78q-172 0 -285.5 -126.5 t-113.5 -353.5zM565 352q109 -90 250 -90q172 0 285.5 126t113.5 353q0 170 -69 289z" />
<glyph unicode="&#xd9;" horiz-adv-x="1505" d="M111 635v850h350v-887q0 -176 61.5 -257t233.5 -81t230 88t58 270v867h351v-838q0 -348 -148.5 -511t-490.5 -163q-340 0 -492.5 150.5t-152.5 511.5zM276 1815h412l213 -232h-299z" />
<glyph unicode="&#xda;" horiz-adv-x="1505" d="M111 635v850h350v-887q0 -176 61.5 -257t233.5 -81t230 88t58 270v867h351v-838q0 -348 -148.5 -511t-490.5 -163q-340 0 -492.5 150.5t-152.5 511.5zM602 1583l211 232h414l-326 -232h-299z" />
<glyph unicode="&#xdb;" horiz-adv-x="1505" d="M111 635v850h350v-887q0 -176 61.5 -257t233.5 -81t230 88t58 270v867h351v-838q0 -348 -148.5 -511t-490.5 -163q-340 0 -492.5 150.5t-152.5 511.5zM303 1583l287 232h332l280 -232h-336l-110 100l-121 -100h-332z" />
<glyph unicode="&#xdc;" horiz-adv-x="1505" d="M111 635v850h350v-887q0 -176 61.5 -257t233.5 -81t230 88t58 270v867h351v-838q0 -348 -148.5 -511t-490.5 -163q-340 0 -492.5 150.5t-152.5 511.5zM367 1583v232h301v-232h-301zM836 1583v232h303v-232h-303z" />
<glyph unicode="&#xdd;" horiz-adv-x="1417" d="M-33 1485h410l332 -570l335 570h406l-573 -912v-573h-351v578zM559 1583l211 232h414l-326 -232h-299z" />
<glyph unicode="&#xde;" horiz-adv-x="1304" d="M115 0v1485h352v-238h197q123 0 219 -12t184 -45t145.5 -87t91 -140t33.5 -201q0 -141 -49 -238.5t-144 -148.5t-210 -72.5t-270 -21.5h-197v-281h-352zM467 588h207q145 0 219 33.5t74 140.5q0 76 -42 116t-99.5 50t-151.5 10h-207v-350z" />
<glyph unicode="&#xdf;" horiz-adv-x="1390" d="M117 0v969q0 285 155 413q158 127 455 127q236 0 383 -107.5t147 -303.5q0 -174 -116 -275q211 -115 211 -370q0 -233 -146.5 -356.5t-392.5 -123.5q-170 0 -297 39l72 277q100 -35 198 -35q90 0 155 50t65 136q0 221 -301 222h-68v262h57q238 0 238 157q0 70 -53.5 113 t-159.5 43q-150 0 -209 -70q-53 -59 -53 -223v-944h-340z" />
<glyph unicode="&#xe0;" horiz-adv-x="1222" d="M61 297q0 98 52.5 170t156 116t228.5 68.5t297 36.5v43q0 96 -45 136t-142 40q-174 0 -196 -162h-316q12 164 158.5 278t382.5 114q246 0 371 -109.5t120 -353.5l-4 -240v-115q0 -215 25 -319h-332l-4 133q-113 -160 -371 -160q-162 0 -271.5 88.5t-109.5 235.5z M197 1485h383l194 -238h-254zM410 322q0 -53 44 -86t111 -33q238 0 238 260v26q-100 -10 -162.5 -19t-120 -27.5t-84 -48t-26.5 -72.5z" />
<glyph unicode="&#xe1;" horiz-adv-x="1222" d="M61 297q0 98 52.5 170t156 116t228.5 68.5t297 36.5v43q0 96 -45 136t-142 40q-174 0 -196 -162h-316q12 164 158.5 278t382.5 114q246 0 371 -109.5t120 -353.5l-4 -240v-115q0 -215 25 -319h-332l-4 133q-113 -160 -371 -160q-162 0 -271.5 88.5t-109.5 235.5zM410 322 q0 -53 44 -86t111 -33q238 0 238 260v26q-100 -10 -162.5 -19t-120 -27.5t-84 -48t-26.5 -72.5zM477 1247l195 238h383l-324 -238h-254z" />
<glyph unicode="&#xe2;" horiz-adv-x="1222" d="M61 297q0 98 52.5 170t156 116t228.5 68.5t297 36.5v43q0 96 -45 136t-142 40q-174 0 -196 -162h-316q12 164 158.5 278t382.5 114q246 0 371 -109.5t120 -353.5l-4 -240v-115q0 -215 25 -319h-332l-4 133q-113 -160 -371 -160q-162 0 -271.5 88.5t-109.5 235.5z M190 1247l289 238h307l279 -238h-307l-127 94l-129 -94h-312zM410 322q0 -53 44 -86t111 -33q238 0 238 260v26q-100 -10 -162.5 -19t-120 -27.5t-84 -48t-26.5 -72.5z" />
<glyph unicode="&#xe3;" horiz-adv-x="1222" d="M61 297q0 98 52.5 170t156 116t228.5 68.5t297 36.5v43q0 96 -45 136t-142 40q-174 0 -196 -162h-316q12 164 158.5 278t382.5 114q246 0 371 -109.5t120 -353.5l-4 -240v-115q0 -215 25 -319h-332l-4 133q-113 -160 -371 -160q-162 0 -271.5 88.5t-109.5 235.5z M195 1247q43 260 278 260q74 0 154 -45t121 -45q90 0 108 90h199q-47 -260 -277 -260q-78 0 -163 45t-117 45q-88 0 -105 -90h-198zM410 322q0 -53 44 -86t111 -33q238 0 238 260v26q-100 -10 -162.5 -19t-120 -27.5t-84 -48t-26.5 -72.5z" />
<glyph unicode="&#xe4;" horiz-adv-x="1222" d="M61 297q0 98 52.5 170t156 116t228.5 68.5t297 36.5v43q0 96 -45 136t-142 40q-174 0 -196 -162h-316q12 164 158.5 278t382.5 114q246 0 371 -109.5t120 -353.5l-4 -240v-115q0 -215 25 -319h-332l-4 133q-113 -160 -371 -160q-162 0 -271.5 88.5t-109.5 235.5z M225 1225v260h303v-260h-303zM410 322q0 -53 44 -86t111 -33q238 0 238 260v26q-100 -10 -162.5 -19t-120 -27.5t-84 -48t-26.5 -72.5zM684 1225v260h301v-260h-301z" />
<glyph unicode="&#xe5;" horiz-adv-x="1222" d="M61 297q0 98 52.5 170t156 116t228.5 68.5t297 36.5v43q0 96 -45 136t-142 40q-174 0 -196 -162h-316q12 164 158.5 278t382.5 114q246 0 371 -109.5t120 -353.5l-4 -240v-115q0 -215 25 -319h-332l-4 133q-113 -160 -371 -160q-162 0 -271.5 88.5t-109.5 235.5zM410 322 q0 -53 44 -86t111 -33q238 0 238 260v26q-100 -10 -162.5 -19t-120 -27.5t-84 -48t-26.5 -72.5zM428 1425q0 78 56.5 130.5t138.5 52.5q80 0 136 -52.5t56 -130t-56.5 -130t-135.5 -52.5q-82 0 -138.5 51.5t-56.5 130.5zM539 1425q0 -35 24.5 -58.5t59 -23.5t59.5 24t25 58 q0 37 -25 60.5t-59.5 23.5t-59 -23.5t-24.5 -60.5z" />
<glyph unicode="&#xe6;" horiz-adv-x="1978" d="M61 289q0 66 26 120t79 94t114.5 69.5t152.5 53t171 39t191 31.5v35q0 96 -45 136t-142 40q-174 0 -196 -162h-316q12 162 158.5 275t382.5 113q248 0 356 -134q152 131 359 131q276 0 430.5 -184t138.5 -481h-809q8 -111 80 -170t170 -59q178 -1 244 110h311 q-70 -184 -219.5 -278.5t-325.5 -94.5q-297 0 -446 203q-117 -203 -449 -203q-182 0 -299 84t-117 232zM410 317q0 -53 44 -83.5t111 -30.5q238 0 238 260v41l-135 -29q-133 -25 -195.5 -58.5t-62.5 -99.5zM1116 670h469q-4 96 -68.5 150t-164.5 54q-209 0 -236 -204z" />
<glyph unicode="&#xe7;" horiz-adv-x="1220" d="M55 557q0 262 155.5 420t407.5 158q125 0 230.5 -38t196 -139.5t120.5 -259.5h-315q-41 174 -211 174q-102 0 -171 -76.5t-69 -240.5q0 -166 69 -242.5t171 -76.5q184 0 225 170h316q-53 -225 -211 -329t-351 -104q-268 0 -415.5 158t-147.5 426zM379 -383l35 111 q49 -29 135 -29q98 0 98 59q0 57 -82 58q-49 0 -78 -19l-61 35l104 170h127l-67 -106q25 8 76 8q74 0 132 -34t58 -106q0 -90 -81 -133t-202 -43q-104 0 -194 29z" />
<glyph unicode="&#xe8;" horiz-adv-x="1269" d="M55 557q0 258 171 418t419 160q272 0 428 -186.5t139 -483.5h-817q8 -111 81 -170t173 -59q182 -1 248 110h311q-70 -184 -221 -278.5t-328 -94.5q-272 0 -438 157t-166 427zM182 1485h383l195 -238h-254zM399 670h478q-4 100 -68 153.5t-164 53.5q-96 0 -164.5 -51.5 t-81.5 -155.5z" />
<glyph unicode="&#xe9;" horiz-adv-x="1269" d="M55 557q0 258 171 418t419 160q272 0 428 -186.5t139 -483.5h-817q8 -111 81 -170t173 -59q182 -1 248 110h311q-70 -184 -221 -278.5t-328 -94.5q-272 0 -438 157t-166 427zM399 670h478q-4 100 -68 153.5t-164 53.5q-96 0 -164.5 -51.5t-81.5 -155.5zM506 1247l194 238 h383l-323 -238h-254z" />
<glyph unicode="&#xea;" horiz-adv-x="1269" d="M55 557q0 258 171 418t419 160q272 0 428 -186.5t139 -483.5h-817q8 -111 81 -170t173 -59q182 -1 248 110h311q-70 -184 -221 -278.5t-328 -94.5q-272 0 -438 157t-166 427zM205 1247l289 238h307l278 -238h-307l-127 94l-129 -94h-311zM399 670h478q-4 100 -68 153.5 t-164 53.5q-96 0 -164.5 -51.5t-81.5 -155.5z" />
<glyph unicode="&#xeb;" horiz-adv-x="1269" d="M55 557q0 258 171 418t419 160q272 0 428 -186.5t139 -483.5h-817q8 -111 81 -170t173 -59q182 -1 248 110h311q-70 -184 -221 -278.5t-328 -94.5q-272 0 -438 157t-166 427zM254 1225v260h303v-260h-303zM399 670h478q-4 100 -68 153.5t-164 53.5q-96 0 -164.5 -51.5 t-81.5 -155.5zM713 1225v260h301v-260h-301z" />
<glyph unicode="&#xec;" horiz-adv-x="581" d="M-158 1485h383l195 -238h-254zM121 0v1102h340v-1102h-340z" />
<glyph unicode="&#xed;" horiz-adv-x="581" d="M121 0v1102h340v-1102h-340zM164 1247l194 238h383l-323 -238h-254z" />
<glyph unicode="&#xee;" horiz-adv-x="581" d="M-143 1247l288 238h308l278 -238h-307l-127 94l-129 -94h-311zM121 0v1102h340v-1102h-340z" />
<glyph unicode="&#xef;" horiz-adv-x="581" d="M-86 1225v260h303v-260h-303zM121 0v1102h340v-1102h-340zM373 1225v260h301v-260h-301z" />
<glyph unicode="&#xf0;" horiz-adv-x="1275" d="M55 541q0 260 139.5 422.5t344.5 162.5q106 0 197 -49t141 -125l2 2q-47 162 -252 312l-138 -82l-116 55l155 94q-90 55 -178 94l256 121q87 -39 148 -78l145 89l119 -58l-168 -100q170 -139 270.5 -337t100.5 -427q0 -317 -165 -490.5t-435 -173.5q-260 0 -413 155 t-153 413zM401 550.5q0 -149.5 69 -232t175.5 -82.5t174 76.5t67.5 238.5q0 160 -67.5 236.5t-174 76.5t-175.5 -82t-69 -231.5z" />
<glyph unicode="&#xf1;" horiz-adv-x="1271" d="M121 0v1102h338v-146q41 70 131 120t211 50q205 0 287.5 -114.5t82.5 -349.5v-662h-337v578q0 57 -2.5 90.5t-11.5 76.5t-26.5 64.5t-50 38t-79.5 16.5q-109 0 -157 -71.5t-48 -227.5v-565h-338zM236 1247q43 260 278 260q74 0 153.5 -45t120.5 -45q90 0 109 90h199 q-47 -260 -277 -260q-78 0 -163 45t-117 45q-88 0 -105 -90h-198z" />
<glyph unicode="&#xf2;" horiz-adv-x="1277" d="M55 555q0 283 168 431.5t416 148.5t416 -148.5t168 -431.5t-168 -432.5t-416 -149.5t-416 149.5t-168 432.5zM188 1485h383l195 -238h-254zM399 555q0 -166 64.5 -242.5t175.5 -76.5t175.5 76.5t64.5 242.5t-65.5 241.5t-174.5 75.5t-174.5 -75.5t-65.5 -241.5z" />
<glyph unicode="&#xf3;" horiz-adv-x="1277" d="M55 555q0 283 168 431.5t416 148.5t416 -148.5t168 -431.5t-168 -432.5t-416 -149.5t-416 149.5t-168 432.5zM399 555q0 -166 64.5 -242.5t175.5 -76.5t175.5 76.5t64.5 242.5t-65.5 241.5t-174.5 75.5t-174.5 -75.5t-65.5 -241.5zM512 1247l195 238h383l-324 -238h-254z " />
<glyph unicode="&#xf4;" horiz-adv-x="1277" d="M55 555q0 283 168 431.5t416 148.5t416 -148.5t168 -431.5t-168 -432.5t-416 -149.5t-416 149.5t-168 432.5zM203 1247l289 238h307l278 -238h-307l-127 94l-129 -94h-311zM399 555q0 -166 64.5 -242.5t175.5 -76.5t175.5 76.5t64.5 242.5t-65.5 241.5t-174.5 75.5 t-174.5 -75.5t-65.5 -241.5z" />
<glyph unicode="&#xf5;" horiz-adv-x="1277" d="M55 555q0 283 168 431.5t416 148.5t416 -148.5t168 -431.5t-168 -432.5t-416 -149.5t-416 149.5t-168 432.5zM209 1247q43 260 278 260q74 0 154 -45t121 -45q90 0 108 90h199q-47 -260 -276 -260q-78 0 -163 45t-118 45q-88 0 -104 -90h-199zM399 555 q0 -166 64.5 -242.5t175.5 -76.5t175.5 76.5t64.5 242.5t-65.5 241.5t-174.5 75.5t-174.5 -75.5t-65.5 -241.5z" />
<glyph unicode="&#xf6;" horiz-adv-x="1277" d="M55 555q0 283 168 431.5t416 148.5t416 -148.5t168 -431.5t-168 -432.5t-416 -149.5t-416 149.5t-168 432.5zM260 1225v260h303v-260h-303zM399 555q0 -166 64.5 -242.5t175.5 -76.5t175.5 76.5t64.5 242.5t-65.5 241.5t-174.5 75.5t-174.5 -75.5t-65.5 -241.5zM719 1225 v260h301v-260h-301z" />
<glyph unicode="&#xf7;" d="M102 408v284h1184v-284h-1184zM504 0v365h381v-365h-381zM504 737v365h381v-365h-381z" />
<glyph unicode="&#xf8;" horiz-adv-x="1277" d="M55 555q0 283 168 431.5t416 148.5q195 0 344 -95l92 107l103 -90l-91 -105q135 -160 136 -397q0 -283 -168 -432.5t-416 -149.5q-186 0 -328 84l-114 -131l-101 92l107 123q-147 158 -148 414zM399 555q0 -90 23 -162l369 426q-56 53 -152 53q-109 0 -174.5 -75.5 t-65.5 -241.5zM500 276q57 -41 139 -40q111 0 175.5 76.5t64.5 242.5q0 72 -17 137z" />
<glyph unicode="&#xf9;" horiz-adv-x="1263" d="M98 438v664h338v-580q0 -59 2 -92t10.5 -76t26 -64.5t50 -37.5t79.5 -16q109 0 154 65.5t45 218.5v582h338v-1102h-338v154q-55 -88 -129 -134.5t-195 -46.5q-211 0 -296 115t-85 350zM188 1485h383l195 -238h-254z" />
<glyph unicode="&#xfa;" horiz-adv-x="1263" d="M98 438v664h338v-580q0 -59 2 -92t10.5 -76t26 -64.5t50 -37.5t79.5 -16q109 0 154 65.5t45 218.5v582h338v-1102h-338v154q-55 -88 -129 -134.5t-195 -46.5q-211 0 -296 115t-85 350zM471 1247l195 238h383l-324 -238h-254z" />
<glyph unicode="&#xfb;" horiz-adv-x="1263" d="M98 438v664h338v-580q0 -59 2 -92t10.5 -76t26 -64.5t50 -37.5t79.5 -16q109 0 154 65.5t45 218.5v582h338v-1102h-338v154q-55 -88 -129 -134.5t-195 -46.5q-211 0 -296 115t-85 350zM182 1247l289 238h307l279 -238h-307l-127 94l-129 -94h-312z" />
<glyph unicode="&#xfc;" horiz-adv-x="1263" d="M98 438v664h338v-580q0 -59 2 -92t10.5 -76t26 -64.5t50 -37.5t79.5 -16q109 0 154 65.5t45 218.5v582h338v-1102h-338v154q-55 -88 -129 -134.5t-195 -46.5q-211 0 -296 115t-85 350zM240 1225v260h303v-260h-303zM698 1225v260h301v-260h-301z" />
<glyph unicode="&#xfd;" horiz-adv-x="1153" d="M0 1102h371l202 -690l218 690h362l-432 -1102q-84 -215 -176 -286.5t-303 -71.5h-109v243h68q106 0 141 15.5t59 76.5l11 29zM449 1247l194 238h383l-324 -238h-253z" />
<glyph unicode="&#xfe;" horiz-adv-x="1331" d="M121 -358v1843h338v-533q47 88 142 131t196 43q217 0 351 -154.5t134 -420.5t-134 -422t-351 -156q-100 0 -195.5 43t-142.5 131v-505h-338zM442 551q0 -160 69 -237.5t175.5 -77.5t176 83.5t69.5 231t-69.5 230.5t-176 83t-175.5 -76.5t-69 -236.5z" />
<glyph unicode="&#xff;" horiz-adv-x="1153" d="M0 1102h371l202 -690l218 690h362l-432 -1102q-84 -215 -176 -286.5t-303 -71.5h-109v243h68q106 0 141 15.5t59 76.5l11 29zM197 1225v260h303v-260h-303zM655 1225v260h301v-260h-301z" />
<glyph unicode="&#x152;" horiz-adv-x="2404" d="M45 745.5q0 350.5 207 557t551 206.5q258 0 420 -120v96h1097v-307h-788v-260h745v-310h-745v-299h788v-309h-1097v98q-162 -125 -420 -125q-344 0 -551 211t-207 561.5zM416 745q0 -229 113.5 -356t285.5 -127t285.5 127t113.5 356q0 231 -112.5 353.5t-286.5 122.5 t-286.5 -122t-112.5 -354z" />
<glyph unicode="&#x153;" horiz-adv-x="2045" d="M55 553q0 285 168 431t416 146q250 0 397 -163q158 164 385 163q276 0 431 -184t139 -481h-809q8 -111 79.5 -170t170.5 -59q177 -1 243 110h312q-70 -184 -219.5 -278.5t-325.5 -94.5q-256 0 -408 162q-150 -162 -395 -162q-248 0 -416 148.5t-168 431.5zM399 553 q0 -164 64.5 -240.5t175.5 -76.5q109 0 176.5 77.5t67.5 239.5q0 315 -244 315q-240 0 -240 -315zM1186 670h469q-4 96 -69 150t-165 54q-209 0 -235 -204z" />
<glyph unicode="&#x178;" horiz-adv-x="1417" d="M-33 1485h410l332 -570l335 570h406l-573 -912v-573h-351v578zM324 1583v232h301v-232h-301zM793 1583v232h303v-232h-303z" />
<glyph unicode="&#x2c6;" horiz-adv-x="964" d="M45 1247l289 238h307l279 -238h-308l-127 94l-129 -94h-311z" />
<glyph unicode="&#x2dc;" horiz-adv-x="950" d="M45 1247q43 260 279 260q74 0 153.5 -45t120.5 -45q90 0 109 90h198q-47 -260 -276 -260q-78 0 -163 45t-118 45q-88 0 -104 -90h-199z" />
<glyph unicode="&#x2000;" horiz-adv-x="957" />
<glyph unicode="&#x2001;" horiz-adv-x="1915" />
<glyph unicode="&#x2002;" horiz-adv-x="957" />
<glyph unicode="&#x2003;" horiz-adv-x="1915" />
<glyph unicode="&#x2004;" horiz-adv-x="638" />
<glyph unicode="&#x2005;" horiz-adv-x="478" />
<glyph unicode="&#x2006;" horiz-adv-x="319" />
<glyph unicode="&#x2007;" horiz-adv-x="319" />
<glyph unicode="&#x2008;" horiz-adv-x="239" />
<glyph unicode="&#x2009;" horiz-adv-x="383" />
<glyph unicode="&#x200a;" horiz-adv-x="106" />
<glyph unicode="&#x2010;" horiz-adv-x="899" d="M88 401v285h723v-285h-723z" />
<glyph unicode="&#x2011;" horiz-adv-x="899" d="M88 401v285h723v-285h-723z" />
<glyph unicode="&#x2012;" horiz-adv-x="899" d="M88 401v285h723v-285h-723z" />
<glyph unicode="&#x2013;" horiz-adv-x="1001" d="M45 401v285h911v-285h-911z" />
<glyph unicode="&#x2014;" horiz-adv-x="1480" d="M45 401v285h1393v-285h-1393z" />
<glyph unicode="&#x2018;" horiz-adv-x="575" d="M98 799v383l209 303h201l-178 -324h147v-362h-379z" />
<glyph unicode="&#x2019;" horiz-adv-x="575" d="M68 797l178 323h-148v365h379v-385l-209 -303h-200z" />
<glyph unicode="&#x201a;" horiz-adv-x="577" d="M68 -324l178 324h-148v365h379v-385l-209 -304h-200z" />
<glyph unicode="&#x201c;" horiz-adv-x="1069" d="M98 799v383l209 303h201l-178 -324h147v-362h-379zM592 799v383l209 303h200l-178 -324h148v-362h-379z" />
<glyph unicode="&#x201d;" horiz-adv-x="1071" d="M68 797l178 323h-148v365h379v-385l-209 -303h-200zM561 797l178 323h-147v365h379v-385l-209 -303h-201z" />
<glyph unicode="&#x201e;" horiz-adv-x="1069" d="M68 -324l178 324h-148v365h379v-385l-209 -304h-200zM561 -324l178 324h-147v365h379v-385l-209 -304h-201z" />
<glyph unicode="&#x2022;" horiz-adv-x="915" d="M88 571q0 150 106.5 256.5t254.5 106.5q160 0 268 -105.5t108 -257.5q0 -160 -107.5 -267t-268.5 -107q-150 0 -255.5 108t-105.5 266z" />
<glyph unicode="&#x2026;" horiz-adv-x="1732" d="M98 0v365h381v-365h-381zM676 0v365h381v-365h-381zM1253 0v365h381v-365h-381z" />
<glyph unicode="&#x202f;" horiz-adv-x="383" />
<glyph unicode="&#x2039;" horiz-adv-x="724" d="M20 561l345 473h317l-268 -475l266 -475h-315z" />
<glyph unicode="&#x203a;" horiz-adv-x="724" d="M43 1034h317l345 -473l-345 -477h-315l266 475z" />
<glyph unicode="&#x205f;" horiz-adv-x="478" />
<glyph unicode="&#x20ac;" horiz-adv-x="1617" d="M-23 504l134 184h159v113h-293l134 182h184q55 252 223 389t420 137q254 0 424 -141t207 -395h-326q-49 264 -311 264q-233 0 -299 -254h485l-131 -182h-379v-113h326l-133 -184h-170q70 -256 305 -256q117 0 203 63.5t108 200.5h326q-49 -256 -219 -397.5t-424 -141.5 t-418 138.5t-217 392.5h-318z" />
<glyph unicode="&#x2122;" horiz-adv-x="1986" d="M23 1280v205h780v-205h-271v-612h-241v612h-268zM854 668v817h385l150 -524l170 524h360v-817h-238v573l-186 -573h-215l-188 569v-569h-238z" />
<glyph unicode="&#x25fc;" horiz-adv-x="1105" d="M0 0v1106h1106v-1106h-1106z" />
<glyph unicode="&#xfb01;" horiz-adv-x="1337" d="M4 862v240h150v69q0 188 89 251t320 63h172v-238h-96q-94 0 -120.5 -14t-26.5 -76v-55h243v-240h-243v-862h-338v862h-150zM879 0v1102h340v-1102h-340zM879 1214v271h338v-271h-338z" />
<glyph unicode="&#xfb02;" horiz-adv-x="1337" d="M4 862v240h150v69q0 188 89 251t320 63h172v-238h-96q-94 0 -120.5 -14t-26.5 -76v-55h243v-240h-243v-862h-338v862h-150zM879 0v1485h338v-1485h-338z" />
</font>
</defs>
</svg>
