<?xml version="1.0" standalone="no"?>
<!DOCTYPE svg PUBLIC "-//W3C//DTD SVG 1.1//EN" "http://www.w3.org/Graphics/SVG/1.1/DTD/svg11.dtd" >
<svg xmlns="http://www.w3.org/2000/svg" xmlns:xlink="http://www.w3.org/1999/xlink" version="1.1">
<metadata></metadata>
<defs>
<font id="suisse_intlregular" horiz-adv-x="501" >
<font-face units-per-em="2048" ascent="1585" descent="-463" />
<missing-glyph horiz-adv-x="485" />
<glyph horiz-adv-x="0" />
<glyph horiz-adv-x="682" />
<glyph unicode="&#xd;" horiz-adv-x="485" />
<glyph unicode=" "  horiz-adv-x="485" />
<glyph unicode="&#x09;" horiz-adv-x="485" />
<glyph unicode="&#xa0;" horiz-adv-x="485" />
<glyph unicode="!" d="M133 0v236h236v-236h-236zM152 1036v449h198v-449l-41 -602h-116z" />
<glyph unicode="&#x22;" horiz-adv-x="632" d="M55 1485h209l-41 -492h-127zM369 1485h209l-41 -492h-127z" />
<glyph unicode="#" horiz-adv-x="1363" d="M45 455l21 145h288l49 356h-290l20 146h291l53 383h152l-54 -383h320l53 383h152l-53 -383h274l-21 -146h-274l-49 -356h276l-20 -145h-277l-61 -455h-152l62 455h-320l-61 -455h-152l62 455h-289zM506 600h319l49 356h-319z" />
<glyph unicode="$" horiz-adv-x="1202" d="M68 471h192q3 -153 83 -239t196 -101v555l-45 12q-177 49 -282.5 155t-105.5 269q0 85 36.5 157t97.5 119.5t137.5 76t161.5 36.5v150h112v-150q211 -15 332.5 -139t118.5 -325h-193q-3 147 -75 221.5t-183 87.5v-508l31 -8q55 -15 96.5 -28.5t91.5 -34.5t86 -43.5 t72 -55.5t58.5 -71t36.5 -89t14 -110q0 -100 -38.5 -181t-106 -133.5t-154 -82.5t-187.5 -36v-174h-112v174q-213 19 -343.5 156t-127.5 340zM299 1124q0 -91 58.5 -150t179.5 -95l2 -2v481q-100 -7 -170 -67t-70 -167zM651 129q126 8 209.5 72t83.5 178q0 64 -19 109 t-61 76.5t-90 50.5t-123 40v-526z" />
<glyph unicode="%" horiz-adv-x="2043" d="M76 1067q0 196 86.5 314t247.5 118q164 0 251 -117.5t87 -314.5t-87 -314.5t-251 -117.5q-161 0 -247.5 118t-86.5 314zM231 1067q0 -153 46.5 -236t132.5 -83q89 0 135.5 83t46.5 236q0 155 -46.5 238.5t-135.5 83.5q-86 0 -132.5 -84t-46.5 -238zM408 0l1024 1485h206 l-1024 -1485h-206zM1305 418q0 197 86 314.5t247 117.5q164 0 251 -117.5t87 -314.5t-87 -314.5t-251 -117.5q-161 0 -247 117.5t-86 314.5zM1460 418q0 -153 46 -236.5t132 -83.5q89 0 136 83.5t47 236.5q0 154 -47 237.5t-136 83.5q-86 0 -132 -83.5t-46 -237.5z" />
<glyph unicode="&#x26;" horiz-adv-x="1439" d="M57 408q0 164 100 279.5t275 174.5q-80 93 -122 173t-42 163q0 143 112 229t288 86q56 0 108.5 -10t103 -34t87.5 -59.5t59.5 -91t22.5 -124.5q0 -134 -82 -230t-226 -155l301 -320q61 148 72 316h193q-19 -253 -133 -453l331 -352h-268l-180 193q-207 -220 -506 -220 q-223 0 -358.5 124t-135.5 311zM256 416q0 -125 87 -203t208 -78q234 0 387 182l-397 426q-285 -102 -285 -327zM467 1212q0 -116 160 -280l4 -6q109 39 174 109t65 157q0 86 -54.5 126t-143.5 40q-85 0 -145 -37.5t-60 -108.5z" />
<glyph unicode="'" horiz-adv-x="319" d="M55 1485h209l-41 -492h-127z" />
<glyph unicode="(" d="M66 563q0 148 25.5 292t69 260.5t89.5 206.5t98 163h154q-110 -179 -177 -413.5t-67 -508.5q0 -272 67 -507.5t177 -413.5h-154q-51 73 -97.5 163t-90 206.5t-69 260t-25.5 291.5z" />
<glyph unicode=")" d="M0 -358q110 178 177 413.5t67 507.5q0 274 -67 508.5t-177 413.5h154q52 -73 98 -163t89.5 -206.5t69 -260.5t25.5 -292t-25.5 -291.5t-69 -260t-90 -206.5t-97.5 -163h-154z" />
<glyph unicode="*" horiz-adv-x="720" d="M23 1214l40 115l232 -88v244h125v-244l231 88l47 -115l-235 -81l141 -199l-94 -72l-152 207l-139 -207l-108 70l143 201z" />
<glyph unicode="+" horiz-adv-x="1388" d="M139 463v176h463v451h186v-451h463v-176h-463v-463h-186v463h-463z" />
<glyph unicode="," d="M125 -285l108 285h-100v236h236v-252l-125 -269h-119z" />
<glyph unicode="-" horiz-adv-x="829" d="M88 473v176h651v-176h-651z" />
<glyph unicode="." d="M133 0v236h236v-236h-236z" />
<glyph unicode="/" horiz-adv-x="772" d="M0 0l584 1485h188l-586 -1485h-186z" />
<glyph unicode="0" horiz-adv-x="1353" d="M98 743q0 238 61 407.5t192 265t325 95.5q146 0 256.5 -53.5t180.5 -154.5t105 -241.5t35 -318.5q0 -239 -61 -409t-191.5 -265.5t-324.5 -95.5q-146 0 -256.5 54t-181 155t-105.5 241.5t-35 319.5zM297 743q0 -304 100 -459t279 -155t279 155t100 459q0 303 -100 458 t-279 155t-279 -155t-100 -458z" />
<glyph unicode="1" horiz-adv-x="753" d="M25 1161v127q172 6 258.5 44t144.5 153h127v-1485h-186v1161h-344z" />
<glyph unicode="2" horiz-adv-x="1208" d="M61 0v168q211 156 353.5 274t256.5 236t168 221t54 199q0 117 -74.5 187.5t-204.5 70.5q-63 0 -117.5 -18t-100 -56t-73 -104.5t-28.5 -155.5h-193q-3 221 138.5 355t377.5 134q211 0 341.5 -103t130.5 -286q0 -84 -27.5 -168t-82 -165t-121 -156.5t-160 -157 t-181.5 -150.5t-203 -151h815v-174h-1069z" />
<glyph unicode="3" horiz-adv-x="1202" d="M47 438h193q16 -142 101.5 -225.5t236.5 -83.5t243 76t92 211q0 62 -22 111t-60 80.5t-93 52.5t-117 29.5t-136 8.5h-30v170h24q198 0 296.5 59t98.5 187q0 115 -81.5 178.5t-206.5 63.5q-145 0 -228.5 -79t-95.5 -210h-192q18 201 155 322.5t365 121.5q100 0 184.5 -21 t152 -64t106 -117.5t38.5 -173.5q0 -115 -63 -206t-179 -138q283 -90 283 -373q0 -109 -44 -195.5t-119 -140t-170.5 -81.5t-203.5 -28q-126 0 -225.5 37.5t-162 102.5t-97.5 147t-43 178z" />
<glyph unicode="4" horiz-adv-x="1277" d="M35 367v176l735 942h191v-942h272v-176h-272v-367h-189v367h-737zM242 543h530v686z" />
<glyph unicode="5" horiz-adv-x="1243" d="M90 430h193q47 -301 335 -301q140 0 236 96.5t96 261.5q0 89 -29 158.5t-77.5 111t-106.5 62.5t-121 21q-106 0 -181.5 -50t-104.5 -114l-187 10l97 799h852v-174h-701l-51 -422q115 112 319 112q98 0 186 -34.5t155.5 -98t107 -162t39.5 -217.5q0 -123 -43.5 -223 t-117.5 -163t-168.5 -96.5t-199.5 -33.5q-125 0 -223 37t-160 102t-98 144.5t-47 173.5z" />
<glyph unicode="6" horiz-adv-x="1259" d="M98 690q0 131 18.5 247t62 223t109 183.5t165.5 122t225 45.5q105 0 189.5 -31t138.5 -84t86.5 -117t44.5 -138h-203q-19 100 -92.5 157.5t-186.5 57.5q-168 0 -262 -155t-102 -419q55 94 153 150.5t238 56.5q208 0 343.5 -141t135.5 -363q0 -139 -63.5 -255t-184 -186.5 t-274.5 -70.5q-274 0 -407.5 183.5t-133.5 533.5zM313 475q0 -155 88.5 -250.5t235.5 -95.5q143 0 234.5 97t91.5 249q0 153 -91 252.5t-233 99.5q-145 0 -235.5 -99t-90.5 -253z" />
<glyph unicode="7" horiz-adv-x="1050" d="M23 1311v174h1028v-174q-277 -224 -440 -561t-189 -750h-225q24 394 190.5 731.5t446.5 579.5h-811z" />
<glyph unicode="8" horiz-adv-x="1282" d="M98 418q0 54 12.5 105t40 102t78.5 94.5t121 71.5q-70 38 -117.5 97t-67.5 120t-20 125q0 167 135 272.5t361 105.5q224 0 360 -106t136 -272q0 -64 -20 -125t-67.5 -120t-117.5 -97q69 -28 120 -71.5t78 -94.5t39.5 -102t12.5 -105q0 -138 -72 -240t-193.5 -153.5 t-275.5 -51.5q-155 0 -277 51.5t-194 153.5t-72 240zM297 418q0 -131 93 -210t251 -79q156 0 250 79t94 210t-94 213t-250 82q-157 0 -250.5 -81.5t-93.5 -213.5zM332 1110q0 -114 85.5 -187t223.5 -73q137 0 222 73t85 187q0 110 -84.5 178t-222.5 68q-139 0 -224 -68 t-85 -178z" />
<glyph unicode="9" horiz-adv-x="1249" d="M86 1001q0 138 63.5 253.5t184 186t274.5 70.5q541 0 541 -716q0 -131 -19 -247.5t-62.5 -223t-109 -183.5t-165.5 -122.5t-224 -45.5q-105 0 -189 31t-138 84.5t-86.5 117.5t-44.5 138h202q19 -101 91.5 -158t185.5 -57q168 0 263 154.5t103 418.5q-55 -94 -154 -150 t-239 -56q-207 0 -342 141t-135 364zM285 1010q0 -153 89.5 -252t233.5 -99q145 0 234.5 98.5t89.5 252.5q0 155 -87.5 250.5t-234.5 95.5q-144 0 -234.5 -96.5t-90.5 -249.5z" />
<glyph unicode=":" d="M133 0v236h236v-236h-236zM133 866v236h236v-236h-236z" />
<glyph unicode=";" d="M125 -285l108 285h-100v236h236v-252l-125 -269h-119zM133 866v236h236v-236h-236z" />
<glyph unicode="&#x3c;" horiz-adv-x="1388" d="M160 469v160l1050 465v-201l-817 -344l817 -338v-199z" />
<glyph unicode="=" horiz-adv-x="1388" d="M182 266v176h1026v-176h-1026zM182 680v178h1026v-178h-1026z" />
<glyph unicode="&#x3e;" horiz-adv-x="1388" d="M180 12v199l817 338l-817 344v201l1051 -465v-160z" />
<glyph unicode="?" horiz-adv-x="1021" d="M27 1071q1 198 141 319t360 121q89 0 170 -22t147.5 -64.5t106 -113t39.5 -160.5q0 -243 -276 -422q-104 -67 -138 -109t-34 -122v-64h-191v70q0 64 14.5 112t50 90.5t77 75.5t112.5 78q91 58 141 124.5t50 158.5q0 96 -76.5 154.5t-196.5 58.5q-66 0 -119 -18t-87 -46 t-57.5 -66.5t-34 -76.5t-13.5 -78h-186zM334 0v236h235v-236h-235z" />
<glyph unicode="@" horiz-adv-x="1738" d="M94 715q0 162 62 305t168.5 245t256 161t318.5 59q151 0 280 -40t229 -118t157 -205t57 -291q0 -121 -31 -221t-82.5 -164t-116.5 -98.5t-135 -34.5q-85 0 -145 50t-72 139q-95 -183 -311 -183q-130 0 -216.5 93t-86.5 274q0 90 29.5 175t82 152t133 107.5t175.5 40.5 q83 0 145 -41.5t90 -113.5l17 120h145l-59 -446q-31 -219 86 -219q81 0 137.5 98.5t56.5 263.5q0 249 -155 383.5t-414 134.5q-186 0 -332 -82.5t-225.5 -226.5t-79.5 -323q0 -167 66 -298.5t193.5 -207.5t297.5 -76q222 0 397 88l58 -141q-210 -101 -455 -101 q-159 0 -294 56.5t-228.5 154.5t-146 235.5t-52.5 295.5zM604 684q0 -106 43.5 -160.5t126.5 -54.5q117 0 184.5 98t67.5 240q0 95 -46.5 148t-131.5 53q-110 0 -177 -95.5t-67 -228.5z" />
<glyph unicode="A" horiz-adv-x="1351" d="M0 0l551 1485h242l559 -1485h-226l-116 322h-682l-115 -322h-213zM391 500h553l-278 774z" />
<glyph unicode="B" horiz-adv-x="1376" d="M176 0v1485h535q88 0 161 -9.5t141.5 -35t115.5 -65.5t75.5 -105.5t28.5 -151.5q0 -106 -44 -194.5t-120 -132.5q225 -94 225 -353q0 -115 -41 -201t-114.5 -137t-167.5 -75.5t-209 -24.5h-586zM385 176h379q157 0 236 66.5t79 193.5q0 130 -79.5 189t-247.5 59h-367 v-508zM385 850h358q279 0 279 240q0 110 -74.5 164.5t-204.5 54.5h-358v-459z" />
<glyph unicode="C" horiz-adv-x="1486" d="M104 745q0 347 188.5 556.5t502.5 209.5q234 0 403 -132.5t215 -366.5h-203q-35 145 -145 234t-281 89q-204 0 -335.5 -155.5t-131.5 -434.5q0 -276 131.5 -435.5t342.5 -159.5q171 0 281 87.5t147 235.5h202q-48 -240 -221.5 -370t-421.5 -130q-209 0 -363 99 t-232.5 272.5t-78.5 400.5z" />
<glyph unicode="D" horiz-adv-x="1495" d="M176 0v1485h406q146 0 265.5 -22.5t222.5 -76t172.5 -137.5t109 -212t39.5 -294q0 -167 -39.5 -295t-109 -212t-172.5 -137.5t-222 -76t-266 -22.5h-406zM385 176h190q63 0 114.5 4t109 13.5t102.5 28.5t90 47.5t77.5 72t58 99.5t38.5 132.5t13 169.5q0 105 -18 189.5 t-47.5 143t-75.5 101.5t-95 68t-113.5 40t-122.5 19.5t-131 4.5h-190v-1133z" />
<glyph unicode="E" horiz-adv-x="1255" d="M176 0v1485h1008v-180h-799v-451h752v-180h-752v-494h799v-180h-1008z" />
<glyph unicode="F" horiz-adv-x="1146" d="M176 0v1485h965v-180h-756v-451h713v-180h-713v-674h-209z" />
<glyph unicode="G" horiz-adv-x="1576" d="M104 745q0 346 189 556t502 210q233 0 401 -122.5t213 -335.5h-203q-39 131 -144.5 206.5t-277.5 75.5q-204 0 -335.5 -155.5t-131.5 -434.5q0 -277 129 -436t338 -159q64 0 122.5 10.5t117.5 38.5t102 70.5t70 111.5t27 158v39h-394v180h590v-758h-164l-10 186 q-135 -213 -469 -213q-210 0 -363 99t-231 272.5t-78 400.5z" />
<glyph unicode="H" horiz-adv-x="1550" d="M176 0v1485h209v-631h780v631h209v-1485h-209v674h-780v-674h-209z" />
<glyph unicode="I" horiz-adv-x="561" d="M176 0v1485h209v-1485h-209z" />
<glyph unicode="J" horiz-adv-x="1130" d="M23 459h194q0 -149 77 -232.5t193 -83.5q50 0 92 14.5t81.5 49t62 102.5t22.5 164v1012h209v-1014q0 -241 -123 -369.5t-344 -128.5q-220 0 -342 124t-122 362z" />
<glyph unicode="K" horiz-adv-x="1363" d="M176 0v1485h209v-748l670 748h260l-555 -606l618 -879h-250l-510 725l-233 -258v-467h-209z" />
<glyph unicode="L" horiz-adv-x="1169" d="M176 0v1485h209v-1305h784v-180h-993z" />
<glyph unicode="M" horiz-adv-x="1810" d="M176 0v1485h350l379 -1237l379 1237h350v-1485h-209v1294l-409 -1294h-221l-410 1294v-1294h-209z" />
<glyph unicode="N" horiz-adv-x="1546" d="M176 0v1485h307l678 -1264v1264h209v-1485h-305l-680 1268v-1268h-209z" />
<glyph unicode="O" horiz-adv-x="1601" d="M104 743q0 224 84 397.5t243.5 272t369.5 98.5t369 -98.5t243 -272t84 -397.5t-84 -398t-243 -273t-369 -99t-369.5 99t-243.5 273t-84 398zM317 743q0 -278 137 -435.5t347 -157.5t346.5 157.5t136.5 435.5t-136.5 435t-346.5 157t-347 -157t-137 -435z" />
<glyph unicode="P" horiz-adv-x="1302" d="M176 0v1485h465q115 0 203.5 -11.5t169 -41.5t132 -79.5t81.5 -129t30 -187.5t-30 -188t-81.5 -129.5t-132 -79t-168.5 -40.5t-204 -11h-256v-588h-209zM385 770h272q75 0 125 4t104 19.5t85.5 43.5t52 78t20.5 121t-20.5 121.5t-52.5 79.5t-85 45.5t-104.5 21.5 t-124.5 5h-272v-539z" />
<glyph unicode="Q" horiz-adv-x="1601" d="M104 743q0 224 84 397.5t243.5 272t369.5 98.5t369 -98.5t243 -272t84 -397.5q0 -328 -176 -538l176 -176l-127 -127l-182 182q-163 -111 -387 -111q-210 0 -369.5 99t-243.5 273t-84 398zM317 743q0 -278 137 -435.5t347 -157.5q138 0 250 71l-138 137l127 129l138 -139 q106 153 106 395q0 278 -136.5 435t-346.5 157t-347 -157t-137 -435z" />
<glyph unicode="R" horiz-adv-x="1390" d="M176 0v1485h471q96 0 172 -7t149 -24.5t125 -49t92.5 -78t60.5 -114.5t20 -155q0 -170 -75.5 -264.5t-219.5 -133.5l344 -659h-234l-321 627q-37 -2 -113 -2h-262v-625h-209zM385 801h279q74 0 124.5 4t104.5 19t85.5 41.5t52 73.5t20.5 114t-20.5 114.5t-52.5 74.5 t-85 42.5t-104.5 20t-124.5 4.5h-279v-508z" />
<glyph unicode="S" horiz-adv-x="1312" d="M66 461h204q29 -153 134 -232t276 -79q161 0 253.5 69t92.5 180q0 109 -82 169t-237 94l-185 38q-64 14 -120.5 35.5t-110 55.5t-92 77.5t-61.5 104.5t-23 133q0 101 49.5 181.5t129.5 127.5t171.5 71.5t185.5 24.5q103 0 193 -23.5t166.5 -71t129.5 -127t74 -183.5h-202 q-24 82 -85.5 135t-132 73.5t-151.5 20.5q-48 0 -98.5 -11t-101 -34.5t-83 -68t-32.5 -103.5q0 -172 241 -227l172 -39q56 -12 100 -24t98 -31.5t94.5 -42t81.5 -56t67 -72.5t42.5 -92.5t16.5 -115.5q0 -85 -30.5 -157.5t-83.5 -125t-124.5 -89.5t-154.5 -55t-172 -18 q-259 0 -419.5 131t-190.5 357z" />
<glyph unicode="T" horiz-adv-x="1175" d="M0 1305v180h1176v-180h-484v-1305h-209v1305h-483z" />
<glyph unicode="U" horiz-adv-x="1497" d="M154 604v881h208v-903q0 -222 88.5 -325t294.5 -103q208 0 299 111.5t91 338.5v881h208v-864q0 -332 -140 -490t-458 -158q-157 0 -266.5 33.5t-183 108.5t-107.5 195t-34 294z" />
<glyph unicode="V" horiz-adv-x="1306" d="M23 1485h229l412 -1270l403 1270h219l-504 -1485h-250z" />
<glyph unicode="W" horiz-adv-x="1888" d="M33 1485h229l287 -1247l274 1247h246l293 -1247l274 1247h219l-370 -1485h-254l-287 1221l-280 -1221h-254z" />
<glyph unicode="X" horiz-adv-x="1343" d="M0 0l551 764l-514 721h248l391 -549l395 549h236l-514 -713l550 -772h-245l-430 600l-432 -600h-236z" />
<glyph unicode="Y" horiz-adv-x="1277" d="M0 1485h229l406 -725l414 725h229l-545 -910v-575h-209v580z" />
<glyph unicode="Z" horiz-adv-x="1296" d="M84 0v180l874 1125h-806v180h1052v-180l-872 -1125h905v-180h-1153z" />
<glyph unicode="[" horiz-adv-x="647" d="M166 -358v1843h461v-158h-281v-1528h281v-157h-461z" />
<glyph unicode="\" horiz-adv-x="772" d="M0 1485h186l586 -1485h-188z" />
<glyph unicode="]" horiz-adv-x="647" d="M20 -201h281v1528h-281v158h461v-1843h-461v157z" />
<glyph unicode="^" horiz-adv-x="903" d="M-45 692l412 793h159l420 -793h-201l-299 559l-292 -559h-199z" />
<glyph unicode="_" horiz-adv-x="937" d="M66 -2h806v-176h-806v176z" />
<glyph unicode="`" horiz-adv-x="514" d="M45 1485h238l186 -238h-158z" />
<glyph unicode="a" horiz-adv-x="1144" d="M82 291q0 64 23 115t70.5 89.5t108.5 67t149.5 50.5t180 36.5t213.5 28.5v27q0 73 -19.5 126.5t-54.5 83.5t-78 44t-97 14q-114 0 -180 -58.5t-72 -160.5h-193q9 115 74.5 200.5t161.5 127.5t206 42q227 0 334 -111q105 -109 105 -335v-8l-2 -254v-44q0 -226 28 -372 h-188q-12 81 -14 152q-108 -179 -377 -179q-162 0 -270.5 85.5t-108.5 232.5zM289 295q0 -79 57 -126.5t156 -47.5q55 0 102.5 10t92 35t76 63t50.5 97t19 135v69q-110 -11 -188.5 -23t-151.5 -31t-117 -43t-70 -58.5t-26 -79.5z" />
<glyph unicode="b" horiz-adv-x="1230" d="M147 0v1485h187v-557q112 192 360 192q95 0 180 -39t150 -111t103 -181.5t38 -241.5q0 -133 -38 -243t-103 -181.5t-150 -110.5t-180 -39q-248 0 -360 193v-166h-187zM326 547q0 -105 26.5 -186.5t72 -130t102 -73t120.5 -24.5q144 0 230 110t86 304t-86 304t-230 110 q-64 0 -120.5 -24.5t-102 -73t-72 -130t-26.5 -186.5z" />
<glyph unicode="c" horiz-adv-x="1140" d="M72 549q0 164 64.5 293t186 203.5t281.5 74.5q96 0 180 -34t141.5 -90t93.5 -124t46 -139h-188q-20 99 -99 161t-186 62q-134 0 -226 -104.5t-92 -300.5q0 -199 92.5 -306.5t225.5 -107.5q112 0 192 64.5t101 156.5h192q-29 -160 -166.5 -272.5t-324.5 -112.5 q-155 0 -272.5 74t-179.5 204.5t-62 297.5z" />
<glyph unicode="d" horiz-adv-x="1236" d="M72 547q0 132 38 241.5t103 181.5t150 111t180 39q248 0 360 -192v557h187v-1485h-187v166q-112 -193 -360 -193q-95 0 -180 39t-150 110.5t-103 181.5t-38 243zM274 547q0 -194 86 -304t230 -110q64 0 120.5 24.5t102 73t72 130t26.5 186.5t-26.5 186.5t-72 130t-102 73 t-120.5 24.5q-144 0 -230 -110t-86 -304z" />
<glyph unicode="e" horiz-adv-x="1189" d="M72 549q0 256 152 413.5t382 157.5q164 0 286 -85q124 -85 182 -229q49 -119 48 -259q0 -29 -2 -58h-848q6 -168 106 -260t234 -92q223 0 301 182h193q-40 -150 -170.5 -248t-323.5 -98q-169 0 -293 76.5t-185.5 205.5t-61.5 294zM274 649h650q-2 80 -39.5 150t-111 116 t-167.5 46q-64 0 -120 -18t-102 -54.5t-75 -98t-35 -141.5z" />
<glyph unicode="f" horiz-adv-x="641" d="M41 952v150h154v80q0 91 11 145t44 91.5t90 52t152 14.5h96v-156h-92q-73 0 -94 -25t-21 -112v-90h207v-150h-207v-952h-186v952h-154z" />
<glyph unicode="g" horiz-adv-x="1222" d="M72 569q0 128 38.5 234t103.5 174t149 105.5t176 37.5q238 0 350 -192v174h186v-955q0 -158 -26 -243.5t-78 -143.5q-60 -69 -159 -107t-222 -38q-190 0 -308.5 86.5t-144.5 251.5h199q21 -83 78.5 -128.5t177.5 -45.5q149 0 225 82q36 38 54 89t18 154v105 q-111 -191 -350 -191q-92 0 -176 37t-149 105t-103.5 174t-38.5 235zM274 569q0 -185 86 -289t226 -104q64 0 119 22.5t98.5 68t68.5 123t25 179.5q0 197 -88 294.5t-223 97.5q-140 0 -226 -104t-86 -288z" />
<glyph unicode="h" horiz-adv-x="1183" d="M147 0v1485h187v-549q111 184 356 184q363 0 363 -424v-696h-187v641q0 57 -4.5 99t-19 85.5t-40.5 70.5t-70.5 44.5t-106.5 17.5q-137 0 -214 -92.5t-77 -267.5v-598h-187z" />
<glyph unicode="i" horiz-adv-x="481" d="M147 0v1102h187v-1102h-187zM147 1260v225h187v-225h-187z" />
<glyph unicode="j" horiz-adv-x="481" d="M-20 -203h53q71 0 92.5 28t21.5 116v1161h187v-1157q0 -90 -10.5 -144.5t-40 -92t-79 -52t-130.5 -14.5h-94v155zM147 1260v225h187v-225h-187z" />
<glyph unicode="k" horiz-adv-x="1034" d="M147 0v1485h187v-879l444 496h230l-420 -457l477 -645h-227l-375 508l-129 -139v-369h-187z" />
<glyph unicode="l" horiz-adv-x="481" d="M147 0v1485h187v-1485h-187z" />
<glyph unicode="m" horiz-adv-x="1841" d="M147 0v1102h187v-166q111 184 332 184q238 0 317 -194q126 194 371 194q184 0 270 -112.5t86 -311.5v-696h-186v641q0 56 -5 99t-20 85.5t-40 70.5t-68.5 45t-102.5 17q-123 0 -194.5 -93t-71.5 -267v-598h-186v641q0 56 -5 99t-20 85.5t-40 70.5t-68.5 45t-102.5 17 q-123 0 -194.5 -93t-71.5 -267v-598h-187z" />
<glyph unicode="n" horiz-adv-x="1183" d="M147 0v1102h187v-166q111 184 356 184q363 0 363 -424v-696h-187v641q0 57 -4.5 99t-19 85.5t-40.5 70.5t-70.5 44.5t-106.5 17.5q-137 0 -214 -92.5t-77 -267.5v-598h-187z" />
<glyph unicode="o" horiz-adv-x="1208" d="M76 547q0 116 30.5 212.5t81.5 162t119.5 111t143 66.5t153.5 21t153.5 -21t143 -66.5t120 -111t82 -162t30.5 -212.5t-30.5 -212.5t-82 -162.5t-120 -111.5t-143 -66.5t-153.5 -21q-99 0 -191 34.5t-168.5 102t-122.5 180.5t-46 257zM274 547q0 -106 27.5 -187 t75 -128.5t105 -71t122.5 -23.5t123 25t105 73.5t74.5 129t27.5 182.5q0 106 -27.5 187t-75 128t-105 70.5t-122.5 23.5q-66 0 -123 -22.5t-104.5 -68.5t-75 -127.5t-27.5 -190.5z" />
<glyph unicode="p" horiz-adv-x="1236" d="M147 -358v1460h187v-174q112 192 360 192q95 0 180 -39t150 -111t103 -181.5t38 -241.5q0 -133 -38 -243t-103 -181.5t-150 -110.5t-180 -39q-248 0 -360 193v-524h-187zM326 547q0 -105 26.5 -186.5t72 -130t102 -73t120.5 -24.5q144 0 230 110t86 304t-86 304t-230 110 q-64 0 -120.5 -24.5t-102 -73t-72 -130t-26.5 -186.5z" />
<glyph unicode="q" horiz-adv-x="1236" d="M72 547q0 132 38 241.5t103 181.5t150 111t180 39q248 0 360 -192v174h187v-1460h-187v524q-112 -193 -360 -193q-95 0 -180 39t-150 110.5t-103 181.5t-38 243zM274 547q0 -194 86 -304t230 -110q64 0 120.5 24.5t102 73t72 130t26.5 186.5t-26.5 186.5t-72 130t-102 73 t-120.5 24.5q-144 0 -230 -110t-86 -304z" />
<glyph unicode="r" horiz-adv-x="727" d="M147 0v1102h183v-193q41 93 122 144.5t189 54.5q35 0 55 -2v-199q-78 8 -104 8q-132 0 -195 -79.5t-63 -257.5v-578h-187z" />
<glyph unicode="s" horiz-adv-x="1075" d="M66 356h196q46 -225 281 -225q109 0 182.5 45t73.5 119q0 40 -17.5 71.5t-50.5 52.5t-70 34.5t-86 23.5l-163 33q-50 10 -91 23.5t-84 38t-72 56.5t-48 80t-19 107q0 95 59.5 165.5t159 106t222.5 35.5q177 0 292.5 -92t141.5 -250h-195q-41 183 -260 183 q-93 0 -162 -35.5t-69 -104.5q0 -63 42 -98t126 -51l155 -31q83 -16 145 -38.5t117.5 -59.5t85 -95t29.5 -135q0 -158 -126.5 -250t-321.5 -92q-105 0 -192.5 32.5t-145.5 87t-92.5 122t-42.5 141.5z" />
<glyph unicode="t" horiz-adv-x="665" d="M27 952v150h174v276h186v-276h209v-150h-209v-653q0 -90 19 -116.5t96 -26.5h94v-156h-135q-83 0 -130.5 10.5t-78 42t-41 83t-10.5 140.5v676h-174z" />
<glyph unicode="u" horiz-adv-x="1163" d="M131 397v705h186v-649q0 -57 4.5 -99t19 -85.5t39 -71t67.5 -45t102 -17.5q133 0 206.5 93t73.5 268v606h187v-1102h-187v158q-112 -185 -346 -185q-352 0 -352 424z" />
<glyph unicode="v" horiz-adv-x="997" d="M0 1102h207l299 -844l299 844h192l-415 -1102h-166z" />
<glyph unicode="w" horiz-adv-x="1474" d="M10 1102h201l211 -815l219 815h193l219 -815l211 815h200l-317 -1102h-170l-244 887l-235 -887h-170z" />
<glyph unicode="x" horiz-adv-x="1064" d="M16 0l406 567l-381 535h223l268 -379l271 379h209l-375 -527l412 -575h-224l-299 420l-297 -420h-213z" />
<glyph unicode="y" horiz-adv-x="954" d="M0 1102h207l280 -850l273 850h194l-393 -1149q-26 -78 -47.5 -125.5t-50.5 -87t-67.5 -59t-90.5 -29.5t-127 -10h-96v155h76q43 0 67 2t52.5 11.5t45.5 29t34 53t32 84.5l8 23z" />
<glyph unicode="z" horiz-adv-x="999" d="M68 0v162l637 778h-596v162h813v-162l-635 -778h647v-162h-866z" />
<glyph unicode="{" horiz-adv-x="593" d="M23 489v150q40 0 68.5 10t45 27t26 45.5t12.5 57.5t3 71v332q0 91 11.5 145t44.5 91.5t90.5 52t152.5 14.5h96v-158h-92q-72 0 -93 -27.5t-21 -115.5v-338q0 -134 -42 -195t-130 -84v-6q88 -23 130 -83.5t42 -194.5v-340q0 -88 21 -116t93 -28h92v-157h-96 q-95 0 -152.5 14.5t-90.5 52t-44.5 91.5t-11.5 145v334q0 53 -5 87t-20.5 64.5t-47.5 44.5t-82 14z" />
<glyph unicode="|" horiz-adv-x="522" d="M176 -184v1669h170v-1669h-170z" />
<glyph unicode="}" horiz-adv-x="593" d="M20 -201h93q72 0 93 28t21 116v340q0 134 42 194.5t130 83.5v6q-88 23 -130 84t-42 195v338q0 88 -21 115.5t-93 27.5h-93v158h97q95 0 152.5 -14.5t90.5 -52t44.5 -91.5t11.5 -145v-332q0 -42 3 -71t12.5 -57.5t26 -45.5t45 -27t68.5 -10v-150q-50 0 -82 -14 t-47.5 -44.5t-20.5 -64.5t-5 -87v-334q0 -91 -11.5 -145t-44.5 -91.5t-90.5 -52t-152.5 -14.5h-97v157z" />
<glyph unicode="~" horiz-adv-x="1388" d="M147 424q8 135 93 219t223 84q66 0 137 -22t121.5 -48.5t107.5 -48.5t97 -22q57 0 96 37.5t45 103.5h174q-9 -136 -94 -219.5t-221 -83.5q-56 0 -123.5 21.5t-119 48t-113 48t-107.5 21.5q-59 0 -98 -36.5t-43 -102.5h-175z" />
<glyph unicode="&#xa1;" d="M133 866v236h236v-236h-236zM152 68l41 600h116l41 -600v-426h-198v426z" />
<glyph unicode="&#xa2;" horiz-adv-x="1118" d="M72 549q0 233 122 388.5t336 178.5v170h95v-166q92 -4 170.5 -39.5t130.5 -91t84.5 -121.5t42.5 -135h-189q-19 91 -82 151t-157 70v-815q99 10 163 71t84 148h193q-27 -151 -146.5 -259.5t-293.5 -123.5v-174h-95v174q-215 18 -336.5 174.5t-121.5 399.5zM274 551 q0 -180 70.5 -284.5t185.5 -125.5v809q-115 -20 -185.5 -121t-70.5 -278z" />
<glyph unicode="&#xa3;" horiz-adv-x="1169" d="M41 115q31 13 65 33t74.5 55t72.5 76t53.5 98.5t21.5 118.5q0 90 -37 182h-248v133h186q-34 67 -51 106t-34 101.5t-17 118.5q0 98 43 172.5t115 117t156 63.5t177 21q233 0 366 -131t130 -348h-192q-3 171 -88 246.5t-224 75.5q-51 0 -98.5 -11.5t-90.5 -36.5t-69 -71 t-26 -107q0 -20 3 -41.5t6 -38t12 -42t13.5 -37.5t18 -41t17.5 -37t20.5 -41.5t19.5 -38.5h395v-133h-335q28 -86 28 -152q0 -76 -33 -142.5t-78.5 -109t-105.5 -77.5l2 -4q76 26 140 26q55 0 171 -40t193 -40q112 0 246 56l55 -162q-46 -27 -127 -47.5t-158 -20.5 t-211.5 41t-216.5 41q-68 0 -148.5 -21.5t-150.5 -60.5z" />
<glyph unicode="&#xa4;" horiz-adv-x="1302" d="M111 283l141 143q-90 126 -90 283q0 158 90 284l-141 144l100 100l139 -139q130 100 295 100q172 0 301 -104l146 143l100 -100l-148 -148q91 -132 91 -280q0 -153 -91 -281l148 -145l-100 -101l-146 144q-135 -101 -301 -101q-160 0 -293 99l-141 -142zM332 709 q0 -140 88 -235t223 -95q143 0 235.5 95t92.5 235q0 144 -92.5 241t-235.5 97q-135 0 -223 -97t-88 -241z" />
<glyph unicode="&#xa5;" horiz-adv-x="1234" d="M-10 1485h219l405 -768l414 768h217l-489 -840h297v-131h-351v-156h351v-131h-351v-227h-188v227h-334v131h334v156h-334v131h283z" />
<glyph unicode="&#xa6;" horiz-adv-x="464" d="M147 -184v624h170v-624h-170zM147 860v625h170v-625h-170z" />
<glyph unicode="&#xa7;" horiz-adv-x="1187" d="M76 645q0 103 75 181.5t191 117.5q-166 108 -166 279q0 70 34 126.5t91 91t127.5 52.5t146.5 18q180 0 293.5 -88.5t137.5 -238.5h-195q-16 88 -81.5 130t-162.5 42q-91 0 -145.5 -34t-54.5 -91q0 -55 36 -96.5t129 -90.5l281 -151q74 -39 123.5 -72.5t92.5 -76t64 -93.5 t21 -112q0 -109 -69 -196t-185 -136q70 -53 105.5 -112.5t35.5 -139.5q0 -106 -57.5 -183t-150 -114t-207.5 -37q-193 0 -313.5 102t-133.5 279h193q32 -225 258 -225q100 0 160.5 38.5t60.5 110.5q0 64 -40.5 111.5t-156.5 109.5l-266 142q-272 146 -272 356zM260 657 q0 -62 37 -108.5t125 -93.5l280 -152l21 -12q205 90 205 215q0 68 -49.5 121t-161.5 114l-228 121q-92 -27 -160.5 -81t-68.5 -124z" />
<glyph unicode="&#xa8;" horiz-adv-x="747" d="M45 1282v203h186v-203h-186zM514 1282v203h188v-203h-188z" />
<glyph unicode="&#xa9;" horiz-adv-x="1689" d="M78 739q0 169 60.5 314t163.5 245t244.5 156.5t299.5 56.5t298.5 -56.5t243.5 -156.5t163.5 -245t60.5 -314q0 -222 -103 -398.5t-277.5 -272t-385.5 -95.5q-158 0 -299.5 56.5t-244.5 155.5t-163.5 243t-60.5 311zM229 739q0 -184 82 -328t222.5 -222t312.5 -78 q131 0 244.5 46t195 127t128 199t46.5 256q0 187 -80 332.5t-219.5 224t-314.5 78.5q-172 0 -312.5 -78.5t-222.5 -224.5t-82 -332zM459 760q0 196 104.5 308t286.5 112q140 0 229.5 -71.5t120.5 -188.5l-153 -43q-20 84 -74.5 129t-128.5 45q-98 0 -157.5 -73.5 t-59.5 -217.5t59.5 -219.5t157.5 -75.5q74 0 129.5 36t77.5 117l155 -40q-37 -107 -128.5 -175.5t-233.5 -68.5q-184 0 -284.5 113t-100.5 313z" />
<glyph unicode="&#xaa;" horiz-adv-x="706" d="M59 1063q0 59 32.5 101t94 65.5t128.5 35.5t159 19v27q0 119 -131 119q-48 0 -82 -27.5t-37 -79.5h-145q6 95 80.5 155t195.5 60q123 0 196.5 -60.5t72.5 -203.5q-5 -118 -5 -182q4 -131 13 -195h-135q-2 37 -2 86q-27 -51 -85.5 -75.5t-121.5 -24.5q-106 0 -167 49.5 t-61 130.5zM215 1069q0 -34 27 -54t65 -20q86 0 126 43.5t40 114.5v25q-150 -15 -204 -37.5t-54 -71.5z" />
<glyph unicode="&#xab;" horiz-adv-x="1052" d="M20 559l326 467h201l-307 -467l307 -469h-201zM481 559l326 467h201l-308 -467l308 -469h-201z" />
<glyph unicode="&#xac;" horiz-adv-x="1388" d="M119 705v176h1069v-680h-189v504h-880z" />
<glyph unicode="&#xad;" horiz-adv-x="829" d="M88 473v176h651v-176h-651z" />
<glyph unicode="&#xae;" horiz-adv-x="1689" d="M78 739q0 169 60.5 314t163.5 245t244.5 156.5t299.5 56.5t298.5 -56.5t243.5 -156.5t163.5 -245t60.5 -314q0 -222 -103 -398.5t-277.5 -272t-385.5 -95.5q-158 0 -299.5 56.5t-244.5 155.5t-163.5 243t-60.5 311zM229 739q0 -184 82 -328t222.5 -222t312.5 -78 q131 0 244.5 46t195 127t128 199t46.5 256q0 187 -80 332.5t-219.5 224t-314.5 78.5q-172 0 -312.5 -78.5t-222.5 -224.5t-82 -332zM547 360v818h250q98 0 163.5 -10t118.5 -37t78 -78t25 -129q0 -70 -37 -127t-111 -90l189 -347h-187l-166 312h-155v-312h-168zM715 801h119 q94 0 137 30t43 91q0 69 -49 95.5t-142 26.5h-108v-243z" />
<glyph unicode="&#xaf;" horiz-adv-x="704" d="M45 1300v154h614v-154h-614z" />
<glyph unicode="&#xb0;" horiz-adv-x="690" d="M45 1210q0 126 87.5 213.5t211.5 87.5q126 0 214.5 -87.5t88.5 -213.5q0 -125 -88.5 -213t-214.5 -88q-123 0 -211 88.5t-88 212.5zM195 1210q0 -67 42 -114t107 -47q67 0 111.5 47t44.5 114q0 68 -44.5 115t-111.5 47q-65 0 -107 -46.5t-42 -115.5z" />
<glyph unicode="&#xb1;" horiz-adv-x="1388" d="M160 0v176h1069v-176h-1069zM160 596v176h440v318h188v-318h441v-176h-441v-320h-188v320h-440z" />
<glyph unicode="&#xb2;" horiz-adv-x="712" d="M45 897v121q93 74 151.5 123t119 105.5t93 98.5t53.5 86.5t21 84.5q0 57 -34.5 88.5t-92.5 31.5q-63 0 -104.5 -42.5t-40.5 -131.5h-150q-2 128 80.5 206.5t220.5 78.5q121 0 199 -59t78 -162q0 -119 -104 -240t-310 -260h432v-129h-612z" />
<glyph unicode="&#xb3;" horiz-adv-x="739" d="M49 1161h144q12 -72 54.5 -119t117.5 -47q71 0 116 37.5t45 100.5q0 139 -194 139h-49v121h41q184 0 184 125q0 58 -40 88t-99 30q-72 0 -113.5 -41t-52.5 -116h-144q9 124 94 196t226 72q53 0 101.5 -13t89.5 -39t65 -70t24 -101q0 -60 -32 -109t-84 -76 q66 -27 101.5 -82t35.5 -120q0 -123 -91 -188.5t-227 -65.5q-139 0 -222 79t-91 199z" />
<glyph unicode="&#xb4;" horiz-adv-x="514" d="M45 1247l184 238h240l-268 -238h-156z" />
<glyph unicode="&#xb5;" horiz-adv-x="1175" d="M121 -358q22 98 22 323v1137h187v-647q0 -175 56.5 -246.5t180.5 -71.5q129 0 201 91.5t72 260.5v613h186v-1102h-186v152q-47 -79 -117 -129t-148 -50q-157 0 -245 123v-114q0 -229 -25 -340h-184z" />
<glyph unicode="&#xb6;" horiz-adv-x="1067" d="M0 1100q0 182 125.5 283.5t368.5 101.5h426v-1667h-156v1523h-248v-1523h-156v919q-70 8 -132.5 33.5t-114.5 68.5t-82.5 110.5t-30.5 150.5z" />
<glyph unicode="&#xb7;" d="M133 434v236h236v-236h-236z" />
<glyph unicode="&#xb8;" d="M45 -360l33 81q61 -28 119 -28q51 0 88 15.5t37 49.5q0 29 -26 45.5t-65 16.5q-50 0 -77 -19l-62 35l105 170h108l-65 -104q30 6 61 6q73 0 114.5 -37.5t41.5 -101.5q0 -77 -68 -122.5t-153 -45.5q-111 0 -191 39z" />
<glyph unicode="&#xb9;" horiz-adv-x="475" d="M27 1528v102q99 2 145.5 20.5t75.5 82.5h112v-836h-151v631h-182z" />
<glyph unicode="&#xba;" horiz-adv-x="727" d="M59 1206q0 158 89 242t217 84q129 0 217 -84t88 -242t-87.5 -240.5t-217.5 -82.5q-82 0 -149.5 33t-112 108t-44.5 182zM213 1206q0 -98 42 -151.5t110 -53.5q71 0 112 52.5t41 152.5q0 99 -41.5 153t-111.5 54q-68 0 -110 -55t-42 -152z" />
<glyph unicode="&#xbb;" horiz-adv-x="1052" d="M45 90l309 469l-309 467h201l325 -467l-325 -469h-201zM506 90l309 469l-309 467h201l325 -467l-325 -469h-201z" />
<glyph unicode="&#xbc;" horiz-adv-x="1658" d="M27 1280v102q99 2 145.5 20.5t75.5 82.5h112v-836h-151v631h-182zM66 0l1024 1485h206l-1024 -1485h-206zM920 193v118l413 525h150v-519h143v-124h-143v-193h-152v193h-411zM1081 317h250v326z" />
<glyph unicode="&#xbd;" horiz-adv-x="1597" d="M27 1280v102q99 2 145.5 20.5t75.5 82.5h112v-836h-151v631h-182zM66 0l1024 1485h206l-1024 -1485h-206zM932 0v121q118 94 186 152t132.5 124t92 118.5t27.5 102.5q0 58 -34.5 89.5t-92.5 31.5q-63 0 -104.5 -42.5t-40.5 -131.5h-150q-2 128 80.5 206.5t220.5 78.5 q121 0 199 -59t78 -162q0 -119 -104 -240t-310 -260h432v-129h-612z" />
<glyph unicode="&#xbe;" horiz-adv-x="1923" d="M49 913h144q11 -72 54 -118.5t118 -46.5q71 0 116 37t45 100q0 139 -194 139h-49v121h41q184 0 184 125q0 58 -40 88.5t-99 30.5q-143 0 -166 -158h-144q9 124 94 196t226 72q53 0 101.5 -13t89.5 -39t65 -70t24 -101q0 -60 -31.5 -108.5t-84.5 -75.5q65 -27 101 -82.5 t36 -120.5q0 -123 -91 -188.5t-227 -65.5q-139 0 -222 79t-91 199zM330 0l1024 1485h207l-1024 -1485h-207zM1184 193v118l413 525h150v-519h143v-124h-143v-193h-152v193h-411zM1346 317h249v326z" />
<glyph unicode="&#xbf;" horiz-adv-x="1021" d="M27 -27q0 56 17 108.5t40 89.5t64 79.5t69.5 65.5t77.5 61q11 8 43 31t43 32t32.5 30.5t30 37.5t16 41.5t7.5 54.5v64h190v-70q0 -40 -6.5 -73.5t-23 -63t-30.5 -50t-43 -45.5t-45 -38t-52.5 -38t-50.5 -36q-37 -28 -55.5 -43t-47.5 -44t-43 -53t-25.5 -59.5t-11.5 -74.5 q0 -94 76 -148.5t199 -54.5q64 0 116 18t84.5 46t55 65.5t32 73.5t11.5 73h186q-1 -130 -66 -230.5t-177 -155t-253 -54.5q-89 0 -169.5 21.5t-146.5 64t-105 113.5t-39 161zM440 866v236h236v-236h-236z" />
<glyph unicode="&#xc0;" horiz-adv-x="1351" d="M0 0l551 1485h242l559 -1485h-226l-116 322h-682l-115 -322h-213zM281 1815h264l225 -232h-186zM391 500h553l-278 774z" />
<glyph unicode="&#xc1;" horiz-adv-x="1351" d="M0 0l551 1485h242l559 -1485h-226l-116 322h-682l-115 -322h-213zM391 500h553l-278 774zM584 1583l225 232h264l-305 -232h-184z" />
<glyph unicode="&#xc2;" horiz-adv-x="1351" d="M0 0l551 1485h242l559 -1485h-226l-116 322h-682l-115 -322h-213zM317 1583l277 232h170l270 -232h-219l-139 115l-139 -115h-220zM391 500h553l-278 774z" />
<glyph unicode="&#xc3;" horiz-adv-x="1351" d="M0 0l551 1485h242l559 -1485h-226l-116 322h-682l-115 -322h-213zM299 1587q20 115 82.5 172.5t153.5 57.5q42 0 82.5 -15t67 -33.5t61 -33.5t65.5 -15q39 0 64.5 23.5t31.5 68.5h146q-20 -120 -84.5 -175.5t-153.5 -55.5q-52 0 -103.5 24t-95.5 48t-79 24 q-40 0 -64 -23.5t-29 -66.5h-145zM391 500h553l-278 774z" />
<glyph unicode="&#xc4;" horiz-adv-x="1351" d="M0 0l551 1485h242l559 -1485h-226l-116 322h-682l-115 -322h-213zM348 1597v203h187v-203h-187zM391 500h553l-278 774zM817 1597v203h189v-203h-189z" />
<glyph unicode="&#xc5;" horiz-adv-x="1351" d="M0 0l551 1485h242l559 -1485h-226l-116 322h-682l-115 -322h-213zM391 500h553l-278 774zM492 1741q0 75 54 124.5t130 49.5q78 0 132 -49.5t54 -124.5t-53.5 -124.5t-132.5 -49.5q-77 0 -130.5 50t-53.5 124zM588 1741q0 -37 26.5 -61.5t61.5 -24.5q36 0 62 24.5 t26 61.5q0 38 -26 63t-62 25q-35 0 -61.5 -25.5t-26.5 -62.5z" />
<glyph unicode="&#xc6;" horiz-adv-x="2150" d="M0 0l1081 1485h1008v-180h-797v-451h750v-180h-750v-494h797v-180h-1008v317h-624l-228 -317h-229zM588 500h493v686z" />
<glyph unicode="&#xc7;" horiz-adv-x="1486" d="M104 745q0 347 188.5 556.5t502.5 209.5q234 0 403 -132.5t215 -366.5h-203q-35 145 -145 234t-281 89q-204 0 -335.5 -155.5t-131.5 -434.5q0 -276 131.5 -435.5t342.5 -159.5q171 0 281 87.5t147 235.5h202q-48 -236 -216.5 -365.5t-407.5 -134.5l-45 -71q30 6 61 6 q73 0 114.5 -37.5t41.5 -101.5q0 -77 -68 -122.5t-153 -45.5q-111 0 -191 39l33 81q61 -28 119 -28q51 0 88 15.5t37 49.5q0 29 -26 45.5t-65 16.5q-50 0 -77 -19l-62 35l86 141q-184 20 -317 123t-201 268.5t-68 376.5z" />
<glyph unicode="&#xc8;" horiz-adv-x="1255" d="M176 0v1485h1008v-180h-799v-451h752v-180h-752v-494h799v-180h-1008zM326 1815h264l225 -232h-186z" />
<glyph unicode="&#xc9;" horiz-adv-x="1255" d="M176 0v1485h1008v-180h-799v-451h752v-180h-752v-494h799v-180h-1008zM588 1583l225 232h264l-305 -232h-184z" />
<glyph unicode="&#xca;" horiz-adv-x="1255" d="M176 0v1485h1008v-180h-799v-451h752v-180h-752v-494h799v-180h-1008zM336 1583l276 232h170l271 -232h-219l-140 115l-139 -115h-219z" />
<glyph unicode="&#xcb;" horiz-adv-x="1255" d="M176 0v1485h1008v-180h-799v-451h752v-180h-752v-494h799v-180h-1008zM352 1597v203h187v-203h-187zM821 1597v203h189v-203h-189z" />
<glyph unicode="&#xcc;" horiz-adv-x="561" d="M-115 1815h265l225 -232h-187zM176 0v1485h209v-1485h-209z" />
<glyph unicode="&#xcd;" horiz-adv-x="561" d="M176 0v1485h209v-1485h-209zM188 1583l226 232h264l-305 -232h-185z" />
<glyph unicode="&#xce;" horiz-adv-x="561" d="M-78 1583l277 232h170l270 -232h-219l-139 115l-140 -115h-219zM176 0v1485h209v-1485h-209z" />
<glyph unicode="&#xcf;" horiz-adv-x="561" d="M-47 1597v203h186v-203h-186zM176 0v1485h209v-1485h-209zM422 1597v203h188v-203h-188z" />
<glyph unicode="&#xd0;" horiz-adv-x="1492" d="M45 662v184h131v639h406q146 0 265.5 -22.5t222.5 -76t172.5 -137.5t109 -212t39.5 -294q0 -167 -39.5 -295t-109 -212t-172.5 -137.5t-222 -76t-266 -22.5h-406v662h-131zM385 176h190q63 0 114.5 4t109 13.5t102.5 28.5t90 47.5t77.5 72t58 99.5t38.5 132.5t13 169.5 q0 105 -18 189.5t-47.5 143t-75.5 101.5t-95 68t-113.5 40t-122.5 19.5t-131 4.5h-190v-463h326v-184h-326v-486z" />
<glyph unicode="&#xd1;" horiz-adv-x="1546" d="M176 0v1485h307l678 -1264v1264h209v-1485h-305l-680 1268v-1268h-209zM436 1587q20 115 82.5 172.5t153.5 57.5q42 0 82.5 -15t67 -33.5t61 -33.5t65.5 -15q39 0 64.5 23.5t31.5 68.5h146q-20 -120 -84.5 -175.5t-153.5 -55.5q-52 0 -103.5 24t-95.5 48t-79 24 q-40 0 -63.5 -23.5t-28.5 -66.5h-146z" />
<glyph unicode="&#xd2;" horiz-adv-x="1601" d="M104 743q0 224 84 397.5t243.5 272t369.5 98.5t369 -98.5t243 -272t84 -397.5t-84 -398t-243 -273t-369 -99t-369.5 99t-243.5 273t-84 398zM317 743q0 -278 137 -435.5t347 -157.5t346.5 157.5t136.5 435.5t-136.5 435t-346.5 157t-347 -157t-137 -435zM406 1815h264 l225 -232h-186z" />
<glyph unicode="&#xd3;" horiz-adv-x="1601" d="M104 743q0 224 84 397.5t243.5 272t369.5 98.5t369 -98.5t243 -272t84 -397.5t-84 -398t-243 -273t-369 -99t-369.5 99t-243.5 273t-84 398zM317 743q0 -278 137 -435.5t347 -157.5t346.5 157.5t136.5 435.5t-136.5 435t-346.5 157t-347 -157t-137 -435zM709 1583 l225 232h264l-305 -232h-184z" />
<glyph unicode="&#xd4;" horiz-adv-x="1601" d="M104 743q0 224 84 397.5t243.5 272t369.5 98.5t369 -98.5t243 -272t84 -397.5t-84 -398t-243 -273t-369 -99t-369.5 99t-243.5 273t-84 398zM317 743q0 -278 137 -435.5t347 -157.5t346.5 157.5t136.5 435.5t-136.5 435t-346.5 157t-347 -157t-137 -435zM442 1583 l277 232h170l270 -232h-219l-139 115l-139 -115h-220z" />
<glyph unicode="&#xd5;" horiz-adv-x="1601" d="M104 743q0 224 84 397.5t243.5 272t369.5 98.5t369 -98.5t243 -272t84 -397.5t-84 -398t-243 -273t-369 -99t-369.5 99t-243.5 273t-84 398zM317 743q0 -278 137 -435.5t347 -157.5t346.5 157.5t136.5 435.5t-136.5 435t-346.5 157t-347 -157t-137 -435zM424 1587 q20 115 82 172.5t153 57.5q42 0 82.5 -15t67.5 -33.5t61.5 -33.5t65.5 -15q39 0 64.5 23.5t31.5 68.5h146q-20 -120 -84.5 -175.5t-153.5 -55.5q-52 0 -103.5 24t-95.5 48t-79 24q-40 0 -64 -23.5t-29 -66.5h-145z" />
<glyph unicode="&#xd6;" horiz-adv-x="1601" d="M104 743q0 224 84 397.5t243.5 272t369.5 98.5t369 -98.5t243 -272t84 -397.5t-84 -398t-243 -273t-369 -99t-369.5 99t-243.5 273t-84 398zM317 743q0 -278 137 -435.5t347 -157.5t346.5 157.5t136.5 435.5t-136.5 435t-346.5 157t-347 -157t-137 -435zM473 1597v203 h186v-203h-186zM942 1597v203h188v-203h-188z" />
<glyph unicode="&#xd7;" horiz-adv-x="1388" d="M213 207l344 342l-344 346l133 131l342 -342l344 340l133 -131l-344 -344l355 -354l-132 -134l-356 355l-342 -340z" />
<glyph unicode="&#xd8;" horiz-adv-x="1599" d="M104 743q0 224 84 397.5t243.5 272t369.5 98.5q264 0 448 -157l119 141l82 -72l-125 -147q172 -206 172 -533q0 -224 -84 -398t-243 -273t-369 -99q-271 0 -451 160l-137 -162l-82 74l141 166q-168 208 -168 532zM317 743q0 -222 91 -372l714 835q-132 129 -321 129 q-210 0 -347 -157t-137 -435zM477 281q128 -131 324 -131q210 0 346.5 157.5t136.5 435.5q0 225 -94 375z" />
<glyph unicode="&#xd9;" horiz-adv-x="1497" d="M154 604v881h208v-903q0 -222 88.5 -325t294.5 -103q208 0 299 111.5t91 338.5v881h208v-864q0 -332 -140 -490t-458 -158q-157 0 -266.5 33.5t-183 108.5t-107.5 195t-34 294zM352 1815h264l226 -232h-187z" />
<glyph unicode="&#xda;" horiz-adv-x="1497" d="M154 604v881h208v-903q0 -222 88.5 -325t294.5 -103q208 0 299 111.5t91 338.5v881h208v-864q0 -332 -140 -490t-458 -158q-157 0 -266.5 33.5t-183 108.5t-107.5 195t-34 294zM635 1583l225 232h264l-305 -232h-184z" />
<glyph unicode="&#xdb;" horiz-adv-x="1497" d="M154 604v881h208v-903q0 -222 88.5 -325t294.5 -103q208 0 299 111.5t91 338.5v881h208v-864q0 -332 -140 -490t-458 -158q-157 0 -266.5 33.5t-183 108.5t-107.5 195t-34 294zM389 1583l277 232h170l270 -232h-219l-139 115l-140 -115h-219z" />
<glyph unicode="&#xdc;" horiz-adv-x="1497" d="M154 604v881h208v-903q0 -222 88.5 -325t294.5 -103q208 0 299 111.5t91 338.5v881h208v-864q0 -332 -140 -490t-458 -158q-157 0 -266.5 33.5t-183 108.5t-107.5 195t-34 294zM420 1597v203h186v-203h-186zM889 1597v203h188v-203h-188z" />
<glyph unicode="&#xdd;" horiz-adv-x="1277" d="M0 1485h229l406 -725l414 725h229l-545 -910v-575h-209v580zM506 1583l225 232h264l-305 -232h-184z" />
<glyph unicode="&#xde;" horiz-adv-x="1269" d="M176 0v1485h209v-258h223q114 0 203 -12.5t169 -44t132 -82.5t82.5 -132.5t30.5 -189.5t-30.5 -188.5t-82.5 -131.5t-132 -82.5t-169 -44t-203 -12.5h-223v-307h-209zM385 492h238q73 0 125.5 5t105.5 22t85 46t52.5 79.5t20.5 121.5t-20.5 122t-52.5 80.5t-85 46.5 t-105.5 22t-125.5 5h-238v-550z" />
<glyph unicode="&#xdf;" horiz-adv-x="1296" d="M147 0v1006q0 249 113 362q130 141 412 141q202 0 332.5 -96t130.5 -256q0 -229 -224 -321q310 -80 310 -398q0 -101 -30.5 -181t-81.5 -132.5t-122 -87t-148.5 -49.5t-164.5 -15q-108 0 -223 23l41 176q95 -31 190 -31q68 0 126 15t107 47.5t77 92t28 140.5 q0 297 -416 297h-6v170h4q164 0 254 61t90 171q0 99 -76.5 160t-199.5 61q-199 0 -273 -101q-63 -76 -63 -249v-1006h-187z" />
<glyph unicode="&#xe0;" horiz-adv-x="1144" d="M82 291q0 64 23 115t70.5 89.5t108.5 67t149.5 50.5t180 36.5t213.5 28.5v27q0 73 -19.5 126.5t-54.5 83.5t-78 44t-97 14q-114 0 -180 -58.5t-72 -160.5h-193q9 115 74.5 200.5t161.5 127.5t206 42q227 0 334 -111t105 -343l-2 -254q-3 -256 28 -416h-188 q-12 81 -14 152q-108 -179 -377 -179q-162 0 -270.5 85.5t-108.5 232.5zM238 1485h237l187 -238h-158zM289 295q0 -79 57 -126.5t156 -47.5q55 0 102.5 10t92 35t76 63t50.5 97t19 135v69q-110 -11 -188.5 -23t-151.5 -31t-117 -43t-70 -58.5t-26 -79.5z" />
<glyph unicode="&#xe1;" horiz-adv-x="1144" d="M82 291q0 64 23 115t70.5 89.5t108.5 67t149.5 50.5t180 36.5t213.5 28.5v27q0 73 -19.5 126.5t-54.5 83.5t-78 44t-97 14q-114 0 -180 -58.5t-72 -160.5h-193q9 115 74.5 200.5t161.5 127.5t206 42q227 0 334 -111t105 -343l-2 -254q-3 -256 28 -416h-188 q-12 81 -14 152q-108 -179 -377 -179q-162 0 -270.5 85.5t-108.5 232.5zM289 295q0 -79 57 -126.5t156 -47.5q55 0 102.5 10t92 35t76 63t50.5 97t19 135v69q-110 -11 -188.5 -23t-151.5 -31t-117 -43t-70 -58.5t-26 -79.5zM483 1247l185 238h239l-268 -238h-156z" />
<glyph unicode="&#xe2;" horiz-adv-x="1144" d="M82 291q0 64 23 115t70.5 89.5t108.5 67t149.5 50.5t180 36.5t213.5 28.5v27q0 73 -19.5 126.5t-54.5 83.5t-78 44t-97 14q-114 0 -180 -58.5t-72 -160.5h-193q9 115 74.5 200.5t161.5 127.5t206 42q227 0 334 -111t105 -343l-2 -254q-3 -256 28 -416h-188 q-12 81 -14 152q-108 -179 -377 -179q-162 0 -270.5 85.5t-108.5 232.5zM223 1247l271 238h182l264 -238h-197l-161 111l-162 -111h-197zM289 295q0 -79 57 -126.5t156 -47.5q55 0 102.5 10t92 35t76 63t50.5 97t19 135v69q-110 -11 -188.5 -23t-151.5 -31t-117 -43 t-70 -58.5t-26 -79.5z" />
<glyph unicode="&#xe3;" horiz-adv-x="1144" d="M82 291q0 64 23 115t70.5 89.5t108.5 67t149.5 50.5t180 36.5t213.5 28.5v27q0 73 -19.5 126.5t-54.5 83.5t-78 44t-97 14q-114 0 -180 -58.5t-72 -160.5h-193q9 115 74.5 200.5t161.5 127.5t206 42q227 0 334 -111t105 -343l-2 -254q-3 -256 28 -416h-188 q-12 81 -14 152q-108 -179 -377 -179q-162 0 -270.5 85.5t-108.5 232.5zM184 1262q20 115 82.5 172t153.5 57q53 0 102 -24.5t92.5 -49t81.5 -24.5q39 0 65 23.5t32 68.5h145q-21 -119 -85.5 -175.5t-152.5 -56.5q-41 0 -83 15.5t-70 34t-62.5 34t-62.5 15.5 q-40 0 -63.5 -23.5t-28.5 -66.5h-146zM289 295q0 -79 57 -126.5t156 -47.5q55 0 102.5 10t92 35t76 63t50.5 97t19 135v69q-110 -11 -188.5 -23t-151.5 -31t-117 -43t-70 -58.5t-26 -79.5z" />
<glyph unicode="&#xe4;" horiz-adv-x="1144" d="M82 291q0 64 23 115t70.5 89.5t108.5 67t149.5 50.5t180 36.5t213.5 28.5v27q0 73 -19.5 126.5t-54.5 83.5t-78 44t-97 14q-114 0 -180 -58.5t-72 -160.5h-193q9 115 74.5 200.5t161.5 127.5t206 42q227 0 334 -111t105 -343l-2 -254q-3 -256 28 -416h-188 q-12 81 -14 152q-108 -179 -377 -179q-162 0 -270.5 85.5t-108.5 232.5zM233 1282v203h187v-203h-187zM289 295q0 -79 57 -126.5t156 -47.5q55 0 102.5 10t92 35t76 63t50.5 97t19 135v69q-110 -11 -188.5 -23t-151.5 -31t-117 -43t-70 -58.5t-26 -79.5zM702 1282v203h189 v-203h-189z" />
<glyph unicode="&#xe5;" horiz-adv-x="1144" d="M82 291q0 64 23 115t70.5 89.5t108.5 67t149.5 50.5t180 36.5t213.5 28.5v27q0 73 -19.5 126.5t-54.5 83.5t-78 44t-97 14q-114 0 -180 -58.5t-72 -160.5h-193q9 115 74.5 200.5t161.5 127.5t206 42q227 0 334 -111t105 -343l-2 -254q-3 -256 28 -416h-188 q-12 81 -14 152q-108 -179 -377 -179q-162 0 -270.5 85.5t-108.5 232.5zM289 295q0 -79 57 -126.5t156 -47.5q55 0 102.5 10t92 35t76 63t50.5 97t19 135v69q-110 -11 -188.5 -23t-151.5 -31t-117 -43t-70 -58.5t-26 -79.5zM397 1403q0 75 54.5 124.5t130.5 49.5 q78 0 132 -49.5t54 -124.5t-53.5 -124.5t-132.5 -49.5q-77 0 -131 50t-54 124zM494 1403q0 -36 26.5 -61t61.5 -25q36 0 62 25t26 61q0 38 -26 63t-62 25q-35 0 -61.5 -25.5t-26.5 -62.5z" />
<glyph unicode="&#xe6;" horiz-adv-x="1945" d="M82 291q0 64 23 115t70.5 89.5t108.5 67t149.5 50.5t180 36.5t213.5 28.5v27q0 73 -19.5 126.5t-54.5 83.5t-78 44t-97 14q-114 0 -180 -58.5t-72 -160.5h-193q9 115 74.5 200.5t161.5 127.5t206 42q295 0 388 -190q71 90 173 138t226 48q164 0 286.5 -85t181 -228.5 t46.5 -317.5h-848q6 -168 106 -260t234 -92q223 0 301 182h193q-40 -150 -170.5 -248t-323.5 -98q-151 0 -262 60.5t-178 169.5q-68 -119 -191.5 -174.5t-275.5 -55.5q-162 0 -270.5 85.5t-108.5 232.5zM289 295q0 -79 57 -126.5t156 -47.5q55 0 102.5 10t92 35t76 63 t50.5 97t19 135v69q-110 -11 -188.5 -23t-151.5 -31t-117 -43t-70 -58.5t-26 -79.5zM1030 649h649q-2 80 -39 150t-110.5 116t-167.5 46q-64 0 -120 -18t-102 -54.5t-75 -98t-35 -141.5z" />
<glyph unicode="&#xe7;" horiz-adv-x="1140" d="M72 549q0 164 64.5 293t186 203.5t281.5 74.5q96 0 180 -34t141.5 -90t93.5 -124t46 -139h-188q-20 99 -99 161t-186 62q-134 0 -226 -104.5t-92 -300.5q0 -199 92.5 -306.5t225.5 -107.5q112 0 192 64.5t101 156.5h192q-19 -104 -85 -191t-172 -140t-230 -54l-45 -71 q30 6 61 6q73 0 114.5 -37.5t41.5 -101.5q0 -77 -68 -122.5t-153 -45.5q-111 0 -191 39l33 81q61 -28 119 -28q51 0 88 15.5t37 49.5q0 30 -25.5 46t-64.5 16q-51 0 -78 -19l-62 35l90 146q-192 34 -303.5 187.5t-111.5 379.5z" />
<glyph unicode="&#xe8;" horiz-adv-x="1189" d="M72 549q0 256 152 413.5t382 157.5q164 0 286.5 -85t181 -228.5t46.5 -317.5h-848q6 -168 106 -260t234 -92q223 0 301 182h193q-40 -150 -170.5 -248t-323.5 -98q-169 0 -293 76.5t-185.5 205.5t-61.5 294zM246 1485h237l187 -238h-158zM274 649h650q-2 80 -39.5 150 t-111 116t-167.5 46q-64 0 -120 -18t-102 -54.5t-75 -98t-35 -141.5z" />
<glyph unicode="&#xe9;" horiz-adv-x="1189" d="M72 549q0 256 152 413.5t382 157.5q164 0 286.5 -85t181 -228.5t46.5 -317.5h-848q6 -168 106 -260t234 -92q223 0 301 182h193q-40 -150 -170.5 -248t-323.5 -98q-169 0 -293 76.5t-185.5 205.5t-61.5 294zM274 649h650q-2 80 -39.5 150t-111 116t-167.5 46 q-64 0 -120 -18t-102 -54.5t-75 -98t-35 -141.5zM512 1247l184 238h240l-268 -238h-156z" />
<glyph unicode="&#xea;" horiz-adv-x="1189" d="M72 549q0 256 152 413.5t382 157.5q164 0 286.5 -85t181 -228.5t46.5 -317.5h-848q6 -168 106 -260t234 -92q223 0 301 182h193q-40 -150 -170.5 -248t-323.5 -98q-169 0 -293 76.5t-185.5 205.5t-61.5 294zM231 1247l271 238h182l264 -238h-196l-162 111l-162 -111h-197 zM274 649h650q-2 80 -39.5 150t-111 116t-167.5 46q-64 0 -120 -18t-102 -54.5t-75 -98t-35 -141.5z" />
<glyph unicode="&#xeb;" horiz-adv-x="1189" d="M72 549q0 256 152 413.5t382 157.5q164 0 286.5 -85t181 -228.5t46.5 -317.5h-848q6 -168 106 -260t234 -92q223 0 301 182h193q-40 -150 -170.5 -248t-323.5 -98q-169 0 -293 76.5t-185.5 205.5t-61.5 294zM262 1282v203h187v-203h-187zM274 649h650q-2 80 -39.5 150 t-111 116t-167.5 46q-64 0 -120 -18t-102 -54.5t-75 -98t-35 -141.5zM731 1282v203h189v-203h-189z" />
<glyph unicode="&#xec;" horiz-adv-x="481" d="M-104 1485h237l186 -238h-157zM147 0v1102h187v-1102h-187z" />
<glyph unicode="&#xed;" horiz-adv-x="481" d="M147 0v1102h187v-1102h-187zM162 1247l184 238h240l-269 -238h-155z" />
<glyph unicode="&#xee;" horiz-adv-x="481" d="M-119 1247l271 238h182l264 -238h-197l-161 111l-162 -111h-197zM147 0v1102h187v-1102h-187z" />
<glyph unicode="&#xef;" horiz-adv-x="481" d="M-88 1282v203h186v-203h-186zM147 0v1102h187v-1102h-187zM381 1282v203h188v-203h-188z" />
<glyph unicode="&#xf0;" horiz-adv-x="1173" d="M72 549q0 260 133 415.5t342 155.5q199 0 315 -162l2 3q-84 191 -280 327l-152 -92l-92 49l160 98q-64 38 -162 82l135 123q104 -51 184 -104l144 88l94 -53l-156 -97q348 -283 348 -735q0 -329 -139.5 -501.5t-376.5 -172.5q-232 0 -365.5 154.5t-133.5 421.5zM274 549 q0 -194 76.5 -305t222.5 -111q139 0 225.5 106.5t86.5 309.5q0 200 -88 306t-224 106q-145 0 -222 -111t-77 -301z" />
<glyph unicode="&#xf1;" horiz-adv-x="1183" d="M147 0v1102h187v-166q111 184 356 184q363 0 363 -424v-696h-187v641q0 57 -4.5 99t-19 85.5t-40.5 70.5t-70.5 44.5t-106.5 17.5q-137 0 -214 -92.5t-77 -267.5v-598h-187zM244 1262q20 115 82 172t153 57q42 0 82.5 -15.5t67.5 -33.5t61.5 -33.5t65.5 -15.5 q39 0 64.5 23.5t31.5 68.5h145q-21 -119 -85 -175.5t-152 -56.5q-41 0 -83 15.5t-70.5 34t-63 34t-62.5 15.5q-40 0 -63.5 -23.5t-28.5 -66.5h-145z" />
<glyph unicode="&#xf2;" horiz-adv-x="1208" d="M76 547q0 116 30.5 212.5t81.5 162t119.5 111t143 66.5t153.5 21t153.5 -21t143 -66.5t120 -111t82 -162t30.5 -212.5t-30.5 -212.5t-82 -162.5t-120 -111.5t-143 -66.5t-153.5 -21q-99 0 -191 34.5t-168.5 102t-122.5 180.5t-46 257zM254 1485h238l186 -238h-158z M274 547q0 -106 27.5 -187t75 -128.5t105 -71t122.5 -23.5t123 25t105 73.5t74.5 129t27.5 182.5q0 106 -27.5 187t-75 128t-105 70.5t-122.5 23.5q-66 0 -123 -22.5t-104.5 -68.5t-75 -127.5t-27.5 -190.5z" />
<glyph unicode="&#xf3;" horiz-adv-x="1208" d="M76 547q0 116 30.5 212.5t81.5 162t119.5 111t143 66.5t153.5 21t153.5 -21t143 -66.5t120 -111t82 -162t30.5 -212.5t-30.5 -212.5t-82 -162.5t-120 -111.5t-143 -66.5t-153.5 -21q-99 0 -191 34.5t-168.5 102t-122.5 180.5t-46 257zM274 547q0 -106 27.5 -187 t75 -128.5t105 -71t122.5 -23.5t123 25t105 73.5t74.5 129t27.5 182.5q0 106 -27.5 187t-75 128t-105 70.5t-122.5 23.5q-66 0 -123 -22.5t-104.5 -68.5t-75 -127.5t-27.5 -190.5zM520 1247l185 238h239l-268 -238h-156z" />
<glyph unicode="&#xf4;" horiz-adv-x="1208" d="M76 547q0 116 30.5 212.5t81.5 162t119.5 111t143 66.5t153.5 21t153.5 -21t143 -66.5t120 -111t82 -162t30.5 -212.5t-30.5 -212.5t-82 -162.5t-120 -111.5t-143 -66.5t-153.5 -21q-99 0 -191 34.5t-168.5 102t-122.5 180.5t-46 257zM240 1247l270 238h182l264 -238 h-196l-162 111l-162 -111h-196zM274 547q0 -106 27.5 -187t75 -128.5t105 -71t122.5 -23.5t123 25t105 73.5t74.5 129t27.5 182.5q0 106 -27.5 187t-75 128t-105 70.5t-122.5 23.5q-66 0 -123 -22.5t-104.5 -68.5t-75 -127.5t-27.5 -190.5z" />
<glyph unicode="&#xf5;" horiz-adv-x="1208" d="M76 547q0 116 30.5 212.5t81.5 162t119.5 111t143 66.5t153.5 21t153.5 -21t143 -66.5t120 -111t82 -162t30.5 -212.5t-30.5 -212.5t-82 -162.5t-120 -111.5t-143 -66.5t-153.5 -21q-99 0 -191 34.5t-168.5 102t-122.5 180.5t-46 257zM221 1262q20 115 82.5 172t153.5 57 q53 0 102 -24.5t92.5 -49t81.5 -24.5q39 0 64.5 23.5t31.5 68.5h146q-21 -119 -85.5 -175.5t-152.5 -56.5q-41 0 -83 15.5t-70 34t-62.5 34t-62.5 15.5q-40 0 -63.5 -23.5t-28.5 -66.5h-146zM274 547q0 -106 27.5 -187t75 -128.5t105 -71t122.5 -23.5t123 25t105 73.5 t74.5 129t27.5 182.5q0 106 -27.5 187t-75 128t-105 70.5t-122.5 23.5q-66 0 -123 -22.5t-104.5 -68.5t-75 -127.5t-27.5 -190.5z" />
<glyph unicode="&#xf6;" horiz-adv-x="1208" d="M76 547q0 116 30.5 212.5t81.5 162t119.5 111t143 66.5t153.5 21t153.5 -21t143 -66.5t120 -111t82 -162t30.5 -212.5t-30.5 -212.5t-82 -162.5t-120 -111.5t-143 -66.5t-153.5 -21q-99 0 -191 34.5t-168.5 102t-122.5 180.5t-46 257zM270 1282v203h187v-203h-187z M274 547q0 -106 27.5 -187t75 -128.5t105 -71t122.5 -23.5t123 25t105 73.5t74.5 129t27.5 182.5q0 106 -27.5 187t-75 128t-105 70.5t-122.5 23.5q-66 0 -123 -22.5t-104.5 -68.5t-75 -127.5t-27.5 -190.5zM739 1282v203h189v-203h-189z" />
<glyph unicode="&#xf7;" horiz-adv-x="1388" d="M160 440v176h1069v-176h-1069zM582 66v235h235v-235h-235zM582 778v236h235v-236h-235z" />
<glyph unicode="&#xf8;" horiz-adv-x="1208" d="M76 547q0 116 30.5 212.5t81.5 162t119.5 111t143 66.5t153.5 21q189 0 326 -108l78 88l84 -72l-82 -94q123 -153 123 -387q0 -116 -30.5 -212.5t-82 -162.5t-120 -111.5t-143 -66.5t-153.5 -21q-191 0 -334 113l-98 -113l-80 74l103 117q-119 148 -119 383zM274 547 q0 -138 48 -236l493 566q-85 79 -211 79q-66 0 -123 -22.5t-104.5 -68.5t-75 -127.5t-27.5 -190.5zM387 219q88 -82 217 -82q65 0 123 25t105 73.5t74.5 129t27.5 182.5q0 141 -51 241z" />
<glyph unicode="&#xf9;" horiz-adv-x="1163" d="M131 397v705h186v-649q0 -57 4.5 -99t19 -85.5t39 -71t67.5 -45t102 -17.5q133 0 206.5 93t73.5 268v606h187v-1102h-187v158q-112 -185 -346 -185q-352 0 -352 424zM276 1485h238l186 -238h-157z" />
<glyph unicode="&#xfa;" horiz-adv-x="1163" d="M131 397v705h186v-649q0 -57 4.5 -99t19 -85.5t39 -71t67.5 -45t102 -17.5q133 0 206.5 93t73.5 268v606h187v-1102h-187v158q-112 -185 -346 -185q-352 0 -352 424zM502 1247l184 238h240l-269 -238h-155z" />
<glyph unicode="&#xfb;" horiz-adv-x="1163" d="M131 397v705h186v-649q0 -57 4.5 -99t19 -85.5t39 -71t67.5 -45t102 -17.5q133 0 206.5 93t73.5 268v606h187v-1102h-187v158q-112 -185 -346 -185q-352 0 -352 424zM221 1247l271 238h182l264 -238h-197l-161 111l-162 -111h-197z" />
<glyph unicode="&#xfc;" horiz-adv-x="1163" d="M131 397v705h186v-649q0 -57 4.5 -99t19 -85.5t39 -71t67.5 -45t102 -17.5q133 0 206.5 93t73.5 268v606h187v-1102h-187v158q-112 -185 -346 -185q-352 0 -352 424zM252 1282v203h186v-203h-186zM721 1282v203h188v-203h-188z" />
<glyph unicode="&#xfd;" horiz-adv-x="954" d="M0 1102h207l280 -850l273 850h194l-393 -1149q-26 -78 -47.5 -125.5t-50.5 -87t-67.5 -59t-90.5 -29.5t-127 -10h-96v155h76q43 0 67 2t52.5 11.5t45.5 29t34 53t32 84.5l8 23zM393 1247l185 238h239l-268 -238h-156z" />
<glyph unicode="&#xfe;" horiz-adv-x="1230" d="M147 -358v1843h187v-557q112 192 360 192q95 0 179.5 -39t148.5 -111t101.5 -181.5t37.5 -241.5q0 -133 -37.5 -243t-101.5 -181.5t-148.5 -110.5t-179.5 -39q-248 0 -360 193v-524h-187zM326 547q0 -105 26.5 -186.5t72 -130t102 -73t120.5 -24.5q144 0 230 110t86 304 t-86 304t-230 110q-64 0 -120.5 -24.5t-102 -73t-72 -130t-26.5 -186.5z" />
<glyph unicode="&#xff;" horiz-adv-x="954" d="M0 1102h207l280 -850l273 850h194l-393 -1149q-26 -78 -47.5 -125.5t-50.5 -87t-67.5 -59t-90.5 -29.5t-127 -10h-96v155h76q43 0 67 2t52.5 11.5t45.5 29t34 53t32 84.5l8 23zM150 1282v203h186v-203h-186zM618 1282v203h189v-203h-189z" />
<glyph unicode="&#x152;" horiz-adv-x="2322" d="M104 743q0 165 51.5 307.5t143 244t222 159t282.5 57.5q314 0 485 -227v201h963v-180h-797v-451h750v-180h-750v-494h797v-180h-963v203q-171 -230 -489 -230q-209 0 -368 99t-243 273t-84 398zM317 743q0 -278 137 -435.5t347 -157.5t346.5 157.5t136.5 435.5 q0 139 -37.5 252.5t-103 187t-153 113t-189.5 39.5t-189.5 -39.5t-153.5 -113t-103.5 -187t-37.5 -252.5z" />
<glyph unicode="&#x153;" horiz-adv-x="2033" d="M76 547q0 116 30.5 212.5t81.5 162t119.5 111t143 66.5t153.5 21q130 0 242 -58.5t178 -174.5q66 111 176.5 172t249.5 61q164 0 286.5 -85t181 -228.5t46.5 -317.5h-848q4 -86 34 -155t78.5 -111t106.5 -64t121 -22q223 0 301 182h193q-40 -150 -170.5 -248t-323.5 -98 q-151 0 -261 60.5t-173 169.5q-66 -114 -177.5 -172t-240.5 -58q-99 0 -191 34.5t-168.5 102t-122.5 180.5t-46 257zM274 547q0 -106 27.5 -187t75 -128.5t105 -71t122.5 -23.5t123 25t105 73.5t74.5 129t27.5 182.5q0 106 -27.5 187t-75 128t-105 70.5t-122.5 23.5 q-66 0 -123 -22.5t-104.5 -68.5t-75 -127.5t-27.5 -190.5zM1118 649h649q-2 80 -39 150t-110.5 116t-167.5 46q-133 0 -226 -77.5t-106 -234.5z" />
<glyph unicode="&#x178;" horiz-adv-x="1277" d="M0 1485h229l406 -725l414 725h229l-545 -910v-575h-209v580zM311 1597v203h187v-203h-187zM780 1597v203h189v-203h-189z" />
<glyph unicode="&#x2c6;" horiz-adv-x="806" d="M45 1247l270 238h183l264 -238h-197l-162 111l-161 -111h-197z" />
<glyph unicode="&#x2dc;" horiz-adv-x="843" d="M45 1262q20 115 82.5 172t153.5 57q53 0 102 -24.5t92.5 -49t81.5 -24.5q39 0 64.5 23.5t31.5 68.5h146q-21 -119 -85.5 -175.5t-152.5 -56.5q-41 0 -83 15.5t-70 34t-62.5 34t-62.5 15.5q-40 0 -64 -23.5t-29 -66.5h-145z" />
<glyph unicode="&#x2000;" horiz-adv-x="957" />
<glyph unicode="&#x2001;" horiz-adv-x="1915" />
<glyph unicode="&#x2002;" horiz-adv-x="957" />
<glyph unicode="&#x2003;" horiz-adv-x="1915" />
<glyph unicode="&#x2004;" horiz-adv-x="638" />
<glyph unicode="&#x2005;" horiz-adv-x="478" />
<glyph unicode="&#x2006;" horiz-adv-x="319" />
<glyph unicode="&#x2007;" horiz-adv-x="319" />
<glyph unicode="&#x2008;" horiz-adv-x="239" />
<glyph unicode="&#x2009;" horiz-adv-x="383" />
<glyph unicode="&#x200a;" horiz-adv-x="106" />
<glyph unicode="&#x2010;" horiz-adv-x="829" d="M88 473v176h651v-176h-651z" />
<glyph unicode="&#x2011;" horiz-adv-x="829" d="M88 473v176h651v-176h-651z" />
<glyph unicode="&#x2012;" horiz-adv-x="829" d="M88 473v176h651v-176h-651z" />
<glyph unicode="&#x2013;" horiz-adv-x="1048" d="M78 473v176h895v-176h-895z" />
<glyph unicode="&#x2014;" horiz-adv-x="1480" d="M66 473v176h1349v-176h-1349z" />
<glyph unicode="&#x2018;" horiz-adv-x="499" d="M133 965v252l125 268h119l-107 -285h99v-235h-236z" />
<glyph unicode="&#x2019;" d="M125 965l108 284h-100v236h236v-252l-125 -268h-119z" />
<glyph unicode="&#x201a;" horiz-adv-x="499" d="M125 -285l108 285h-100v236h236v-252l-125 -269h-119z" />
<glyph unicode="&#x201c;" horiz-adv-x="843" d="M133 965v252l125 268h119l-107 -285h99v-235h-236zM475 965v252l125 268h119l-107 -285h99v-235h-236z" />
<glyph unicode="&#x201d;" horiz-adv-x="843" d="M125 965l108 284h-100v236h236v-252l-125 -268h-119zM467 965l108 284h-100v236h236v-252l-125 -268h-119z" />
<glyph unicode="&#x201e;" horiz-adv-x="864" d="M125 -285l108 285h-100v236h236v-252l-125 -269h-119zM487 -285l109 285h-100v236h235v-252l-125 -269h-119z" />
<glyph unicode="&#x2022;" horiz-adv-x="915" d="M88 571q0 150 106.5 256.5t254.5 106.5q160 0 268 -105.5t108 -257.5q0 -160 -107.5 -267t-268.5 -107q-149 0 -255 108t-106 266z" />
<glyph unicode="&#x2026;" horiz-adv-x="1505" d="M133 0v236h236v-236h-236zM635 0v236h235v-236h-235zM1137 0v236h235v-236h-235z" />
<glyph unicode="&#x202f;" horiz-adv-x="383" />
<glyph unicode="&#x2039;" horiz-adv-x="591" d="M20 559l326 467h201l-307 -467l307 -469h-201z" />
<glyph unicode="&#x203a;" horiz-adv-x="591" d="M45 90l309 469l-309 467h201l325 -467l-325 -469h-201z" />
<glyph unicode="&#x205f;" horiz-adv-x="478" />
<glyph unicode="&#x20ac;" horiz-adv-x="1437" d="M-31 528l88 131h121q-2 29 -2 91q0 55 2 84h-209l88 129h138q50 258 215 403t413 145q225 0 383.5 -134t184.5 -357h-195q-21 162 -125.5 249t-259.5 87q-156 0 -265.5 -101.5t-148.5 -291.5h576l-88 -129h-506q-2 -29 -2 -84q0 -62 2 -91h428l-88 -131h-322 q40 -191 148.5 -295t265.5 -104q156 0 261 86.5t128 249.5h195q-26 -226 -187.5 -359t-390.5 -133q-252 0 -413 146t-209 409h-226z" />
<glyph unicode="&#x2122;" horiz-adv-x="1738" d="M10 1352v133h674v-133h-256v-684h-162v684h-256zM754 668v817h252l213 -613l204 613h248v-817h-162v602l-215 -602h-161l-218 602v-602h-161z" />
<glyph unicode="&#x25fc;" horiz-adv-x="1105" d="M0 0v1106h1106v-1106h-1106z" />
<glyph unicode="&#xfb01;" horiz-adv-x="1122" d="M41 952v150h154v80q0 91 11 145t44 91.5t90 52t152 14.5h96v-156h-92q-73 0 -94 -25t-21 -112v-90h207v-150h-207v-952h-186v952h-154zM788 0v1102h187v-1102h-187zM788 1260v225h187v-225h-187z" />
<glyph unicode="&#xfb02;" horiz-adv-x="1122" d="M41 952v150h154v80q0 91 11 145t44 91.5t90 52t152 14.5h96v-156h-92q-73 0 -94 -25t-21 -112v-90h207v-150h-207v-952h-186v952h-154zM788 0v1485h187v-1485h-187z" />
</font>
</defs>
</svg>
